<?xml version="1.0" standalone="no"?>
<!DOCTYPE svg PUBLIC "-//W3C//DTD SVG 1.1//EN" "http://www.w3.org/Graphics/SVG/1.1/DTD/svg11.dtd" >
<svg>
<metadata>
Created by FontForge 20090622 at Thu Sep 27 05:33:30 2018
 By deploy user
Copyright 2015 Google Inc. All Rights Reserved.
</metadata>
<defs>
<font id="NotoSansDevanagariUI-Regular" horiz-adv-x="0" >
  <font-face 
    font-family="Noto Sans Devanagari UI"
    font-weight="400"
    font-stretch="normal"
    units-per-em="1000"
    panose-1="2 11 5 2 4 5 4 2 2 4"
    ascent="800"
    descent="-200"
    bbox="-606 -268 1407 1347"
    underline-thickness="50"
    underline-position="-75"
    unicode-range="U+000D-U+A8FD"
  />
<missing-glyph horiz-adv-x="600" 
d="M94 714h411v-714h-411v714zM454 51v612h-309v-612h309z" />
    <glyph glyph-name=".notdef" horiz-adv-x="600" 
d="M94 714h411v-714h-411v714zM454 51v612h-309v-612h309z" />
    <glyph glyph-name="null" 
 />
    <glyph glyph-name="null" 
 />
    <glyph glyph-name="CR" unicode="&#xd;" horiz-adv-x="260" 
 />
    <glyph glyph-name="space" unicode=" " horiz-adv-x="260" 
 />
    <glyph glyph-name="binducandradeva" unicode="&#x900;" 
d="M-352 713q24 101 77 142t130 41q72 0 126 -44t88 -139l-69 -24q-26 71 -60 106t-87 35q-59 0 -87 -37.5t-44 -104.5zM-94 730q0 -21 -15 -35.5t-35 -14.5t-35 14.5t-15 35.5t15 35.5t35 14.5t35 -14.5t15 -35.5z" />
    <glyph glyph-name="candrabindudeva" unicode="&#x901;" 
d="M-188 847q0 21 14.5 35t34.5 14q21 0 35.5 -14t14.5 -35t-14.5 -35.5t-35.5 -14.5q-20 0 -34.5 14.5t-14.5 35.5zM69 863q-23 -101 -77 -142t-130 -41q-72 0 -126 44t-88 139l69 24q26 -71 60 -105.5t88 -34.5q58 0 85.5 37.5t44.5 104.5z" />
    <glyph glyph-name="anusvaradeva" unicode="&#x902;" 
d="M-185 772q0 24 16.5 41t38.5 17t38.5 -17t16.5 -41t-16.5 -41t-38.5 -17t-38.5 17t-16.5 41z" />
    <glyph glyph-name="visargadeva" unicode="&#x903;" horiz-adv-x="272" 
d="M78 435q0 26 18 45t43 19t43 -19t18 -45t-18 -45t-43 -19t-43 19t-18 45zM78 118q0 26 18 45t43 19t43 -19t18 -45t-18 -45t-43 -19t-43 19t-18 45z" />
    <glyph glyph-name="ashortdeva" unicode="&#x904;" horiz-adv-x="764" 
d="M470 218q0 -70 -45.5 -104t-112.5 -34q-86 0 -153 64t-130 212l71 26q43 -106 93 -167.5t112 -61.5q37 0 61.5 17.5t24.5 56.5q0 37 -20.5 66t-52.5 54q-27 -5 -58 -6l-5 70q68 2 96.5 23.5t28.5 59.5q0 36 -23.5 52t-54.5 16q-38 0 -67.5 -10t-63.5 -27l-25 69
q26 14 64 26t88 12q78 0 119.5 -39t41.5 -98q0 -78 -67 -120q11 -10 20 -20q38 -5 74 -5q32 0 57 3t51 10v188h-73v71h71q-16 68 -35.5 92.5t-56.5 24.5q-14 0 -26.5 -1t-25.5 -1q-35 0 -63.5 11t-52.5 40.5t-43 84.5l66 23q17 -44 35.5 -66t61.5 -22q14 0 30 2t34 2
q37 0 65 -17t49 -58t38 -115h111v-71h-104v-551h-81v290q-24 -6 -47 -8.5t-49 -2.5q-17 0 -43 3q15 -30 15 -64z" />
    <glyph glyph-name="adeva" unicode="&#x905;" horiz-adv-x="764" 
d="M470 218q0 -70 -45.5 -104t-112.5 -34q-86 0 -153 64t-130 212l71 26q43 -106 93 -167.5t112 -61.5q37 0 61.5 17.5t24.5 56.5q0 37 -20.5 66t-52.5 54q-27 -5 -58 -6l-5 70q68 2 96.5 23.5t28.5 59.5q0 36 -23.5 52t-54.5 16q-38 0 -67.5 -10t-63.5 -27l-25 69
q26 14 64 26t88 12q78 0 119.5 -39t41.5 -98q0 -78 -67 -120q11 -10 20 -20q38 -5 74 -5q32 0 57 3t51 10v188h-73v71h258v-71h-104v-551h-81v290q-24 -6 -47 -8.5t-49 -2.5q-17 0 -43 3q15 -30 15 -64z" />
    <glyph glyph-name="aadeva" unicode="&#x906;" horiz-adv-x="1023" 
d="M470 218q0 -70 -45.5 -104t-112.5 -34q-86 0 -153 64t-130 212l71 26q43 -106 93 -167.5t112 -61.5q37 0 61.5 17.5t24.5 56.5q0 37 -20.5 66t-52.5 54q-27 -5 -58 -6l-5 70q68 2 96.5 23.5t28.5 59.5q0 36 -23.5 52t-54.5 16q-38 0 -67.5 -10t-63.5 -27l-25 69
q26 14 64 26t88 12q78 0 119.5 -39t41.5 -98q0 -78 -67 -120q11 -10 20 -20q38 -5 74 -5q32 0 57 3t51 10v188h-73v71h517v-71h-104v-551h-81v551h-178v-551h-81v290q-24 -6 -47 -8.5t-49 -2.5q-17 0 -43 3q15 -30 15 -64z" />
    <glyph glyph-name="ideva" unicode="&#x907;" horiz-adv-x="491" 
d="M271 222q-29 0 -58 -7t-52 -18q-47 28 -79 66t-32 89q0 28 10 48t27 33q23 17 54 24.5t80 7.5h93v86h-314v71h505v-71h-110v-157h-184q-31 0 -44 -3t-22 -10q-15 -12 -15 -34q0 -24 14 -40.5t30 -29.5q46 17 101 17q74 0 123 -38t49 -102q0 -65 -41.5 -102.5
t-116.5 -47.5q29 -12 60.5 -23t65.5 -21l-33 -70q-57 26 -109 54.5t-97 56.5q-59 3 -93.5 17.5t-34.5 46.5q0 22 13.5 36.5t39.5 14.5q20 0 41.5 -10.5t51.5 -35.5q14 -2 25 -2q70 0 108.5 20.5t38.5 64.5q0 33 -24.5 51t-70.5 18z" />
    <glyph glyph-name="iideva" unicode="&#x908;" horiz-adv-x="491" 
d="M271 222q-29 0 -58 -7t-52 -18q-47 28 -79 66t-32 89q0 28 10 48t27 33q23 17 54 24.5t80 7.5h93v86h-314v71h505v-71h-110v-157h-184q-31 0 -44 -3t-22 -10q-15 -12 -15 -34q0 -24 14 -40.5t30 -29.5q46 17 101 17q74 0 123 -38t49 -102q0 -65 -41.5 -102.5
t-116.5 -47.5q29 -12 60.5 -23t65.5 -21l-33 -70q-57 26 -109 54.5t-97 56.5q-59 3 -93.5 17.5t-34.5 46.5q0 22 13.5 36.5t39.5 14.5q20 0 41.5 -10.5t51.5 -35.5q14 -2 25 -2q70 0 108.5 20.5t38.5 64.5q0 33 -24.5 51t-70.5 18zM293 615q-21 35 -35.5 73t-14.5 74
q0 67 44.5 100.5t110.5 33.5q32 0 59 -7t47 -17l-22 -66q-17 9 -36 15t-41 6q-40 0 -61 -22.5t-21 -57.5q0 -33 13.5 -64.5t38.5 -67.5h-82z" />
    <glyph glyph-name="udeva" unicode="&#x909;" horiz-adv-x="548" 
d="M0 622h563v-71h-110q32 -39 32 -87q0 -90 -79 -136q36 -32 64.5 -74.5t28.5 -101.5q0 -50 -22.5 -84t-61.5 -51t-87 -17q-57 0 -108.5 30.5t-99 99t-91.5 183.5l71 25q28 -78 61.5 -137.5t73 -93t85.5 -33.5q41 0 67.5 18.5t26.5 67.5q0 41 -22.5 75.5t-62.5 65.5
q-30 -6 -65 -7l-5 70q73 2 109 26t36 73q0 30 -15 52.5t-38 35.5h-351v71z" />
    <glyph glyph-name="uudeva" unicode="&#x90a;" horiz-adv-x="765" 
d="M0 622h780v-71h-327q32 -39 32 -87q0 -90 -79 -136q11 -9 21 -19t19 -21q31 22 62 33.5t65 11.5q65 0 106.5 -39.5t41.5 -108.5q0 -46 -15.5 -92.5t-49.5 -92.5l-72 41q25 29 41 64t16 76q0 43 -20.5 63t-55.5 20q-39 0 -81 -37q7 -16 11 -35t4 -40q0 -50 -22.5 -84
t-61.5 -51t-87 -17q-57 0 -108.5 30.5t-99 99t-91.5 183.5l71 25q28 -78 61.5 -137.5t73 -93t85.5 -33.5q41 0 67.5 18.5t26.5 67.5q0 41 -22.5 75.5t-62.5 65.5q-30 -6 -65 -7l-5 70q73 2 109 26t36 73q0 30 -15 52.5t-38 35.5h-351v71z" />
    <glyph glyph-name="rvocalicdeva" unicode="&#x90b;" horiz-adv-x="853" 
d="M127 65l-47 67l246 149q-42 54 -72.5 76.5t-72.5 22.5q-29 0 -57 -8t-69 -29l-28 74q34 16 71 27.5t81 11.5q40 0 72 -12.5t63 -41t68 -76.5v225h-382v71h867v-71h-405v-222q34 2 67.5 6.5t54.5 10.5q-10 20 -10 41q0 32 21 47.5t46 15.5q38 0 60.5 -22t22.5 -55
q0 -28 -14 -45t-34 -25l27.5 -45.5l26.5 -40.5l-11 -33q-53 -8 -75.5 -28.5t-22.5 -53.5q0 -34 24.5 -49.5t55.5 -15.5t55 7.5t58 25.5l26 -70q-26 -13 -59 -23.5t-74 -10.5q-76 0 -118 39.5t-42 101.5q0 40 23.5 74.5t69.5 52.5l-15.5 28.5t-11.5 23.5q-16 -6 -42.5 -11.5
t-55.5 -9.5t-53 -5v-260h-80v234z" />
    <glyph glyph-name="lvocalicdeva" unicode="&#x90c;" horiz-adv-x="699" 
d="M422 30q0 48 30.5 84.5t97.5 55.5q11 21 18 45t7 53q0 45 -22 66.5t-57 21.5q-25 0 -50.5 -12t-48.5 -44t-41 -92l-77 24q12 46 32 81q-23 18 -47.5 29t-54.5 11q-41 0 -62 -23t-21 -59q0 -38 21.5 -72.5t62 -72.5t99.5 -86l-54 -52q-59 50 -106.5 95.5t-75.5 92
t-28 99.5t24.5 86.5t61 49t73.5 15.5q44 0 80.5 -14.5t69.5 -42.5q48 45 116 55v127h-470v71h714v-71h-164v-132q40 -12 73 -49t33 -106q0 -41 -12 -79.5t-29 -70.5q-61 -10 -90 -32t-29 -58q0 -34 25 -49.5t56 -15.5t55 8t58 25l25 -69q-25 -13 -59 -23.5t-74 -10.5
q-75 0 -117.5 39t-42.5 102z" />
    <glyph glyph-name="ecandradeva" unicode="&#x90d;" horiz-adv-x="553" 
d="M568 551h-94v-171q0 -51 -7.5 -81.5t-25.5 -52.5q-37 -48 -118 -54l-16 74q22 4 37.5 9.5t25.5 16.5q12 12 17.5 29.5t5.5 58.5v171h-233v-198q0 -46 3 -75t13 -48t30 -34.5t54 -35.5l110 -62q63 -36 89.5 -68.5t26.5 -82.5q0 -41 -16.5 -76t-30.5 -55l-72 42
q13 20 24.5 42t11.5 45q0 19 -8 33.5t-32.5 32t-72.5 45.5l-87 50q-39 22 -66.5 47t-41.5 59q-16 36 -16 104v235h-79v71h568v-71zM534 863q-23 -101 -77 -142t-130 -41q-72 0 -126 44t-88 139l71 24q26 -71 59.5 -104.5t86.5 -33.5q57 0 84 36.5t44 103.5z" />
    <glyph glyph-name="eshortdeva" unicode="&#x90e;" horiz-adv-x="553" 
d="M568 551h-94v-171q0 -51 -7.5 -81.5t-25.5 -52.5q-37 -48 -118 -54l-16 74q22 4 37.5 9.5t25.5 16.5q12 12 17.5 29.5t5.5 58.5v171h-233v-198q0 -46 3 -75t13 -48t30 -34.5t54 -35.5l110 -62q63 -36 89.5 -68.5t26.5 -82.5q0 -41 -16.5 -76t-30.5 -55l-72 42
q13 20 24.5 42t11.5 45q0 19 -8 33.5t-32.5 32t-72.5 45.5l-87 50q-39 22 -66.5 47t-41.5 59q-16 36 -16 104v235h-79v71h568v-71zM393 615q-16 72 -36 98t-58 26q-14 0 -26.5 -1t-25.5 -1q-35 0 -63.5 11t-52.5 40.5t-43 84.5l66 23q17 -44 35.5 -66t61.5 -22q14 0 30 2
t34 2q37 0 65 -17t49.5 -60t39.5 -120h-76z" />
    <glyph glyph-name="edeva" unicode="&#x90f;" horiz-adv-x="553" 
d="M568 551h-94v-171q0 -51 -7.5 -81.5t-25.5 -52.5q-37 -48 -118 -54l-16 74q22 4 37.5 9.5t25.5 16.5q12 12 17.5 29.5t5.5 58.5v171h-233v-198q0 -46 3 -75t13 -48t30 -34.5t54 -35.5l110 -62q63 -36 89.5 -68.5t26.5 -82.5q0 -41 -16.5 -76t-30.5 -55l-72 42
q13 20 24.5 42t11.5 45q0 19 -8 33.5t-32.5 32t-72.5 45.5l-87 50q-39 22 -66.5 47t-41.5 59q-16 36 -16 104v235h-79v71h568v-71z" />
    <glyph glyph-name="aideva" unicode="&#x910;" horiz-adv-x="553" 
d="M568 551h-94v-171q0 -51 -7.5 -81.5t-25.5 -52.5q-37 -48 -118 -54l-16 74q22 4 37.5 9.5t25.5 16.5q12 12 17.5 29.5t5.5 58.5v171h-233v-198q0 -46 3 -75t13 -48t30 -34.5t54 -35.5l110 -62q63 -36 89.5 -68.5t26.5 -82.5q0 -41 -16.5 -76t-30.5 -55l-72 42
q13 20 24.5 42t11.5 45q0 19 -8 33.5t-32.5 32t-72.5 45.5l-87 50q-39 22 -66.5 47t-41.5 59q-16 36 -16 104v235h-79v71h568v-71zM394 615q-21 79 -41.5 124.5t-45.5 64.5t-59 19q-23 0 -39.5 -4.5t-30.5 -9.5l-24 73q39 14 91 14q54 0 93.5 -25.5t71 -87t59.5 -168.5h-75z
" />
    <glyph glyph-name="ocandradeva" unicode="&#x911;" horiz-adv-x="1023" 
d="M470 218q0 -70 -45.5 -104t-112.5 -34q-86 0 -153 64t-130 212l71 26q43 -106 93 -167.5t112 -61.5q37 0 61.5 17.5t24.5 56.5q0 37 -20.5 66t-52.5 54q-27 -5 -58 -6l-5 70q68 2 96.5 23.5t28.5 59.5q0 36 -23.5 52t-54.5 16q-38 0 -67.5 -10t-63.5 -27l-25 69
q26 14 64 26t88 12q78 0 119.5 -39t41.5 -98q0 -78 -67 -120q11 -10 20 -20q38 -5 74 -5q32 0 57 3t51 10v188h-73v71h517v-71h-104v-551h-81v551h-178v-551h-81v290q-24 -6 -47 -8.5t-49 -2.5q-17 0 -43 3q15 -30 15 -64zM1063 863q-23 -101 -77 -142t-130 -41
q-72 0 -126 44t-88 139l71 24q26 -71 59.5 -104.5t86.5 -33.5q57 0 84 36.5t44 103.5z" />
    <glyph glyph-name="oshortdeva" unicode="&#x912;" horiz-adv-x="1023" 
d="M470 218q0 -70 -45.5 -104t-112.5 -34q-86 0 -153 64t-130 212l71 26q43 -106 93 -167.5t112 -61.5q37 0 61.5 17.5t24.5 56.5q0 37 -20.5 66t-52.5 54q-27 -5 -58 -6l-5 70q68 2 96.5 23.5t28.5 59.5q0 36 -23.5 52t-54.5 16q-38 0 -67.5 -10t-63.5 -27l-25 69
q26 14 64 26t88 12q78 0 119.5 -39t41.5 -98q0 -78 -67 -120q11 -10 20 -20q38 -5 74 -5q32 0 57 3t51 10v188h-73v71h517v-71h-104v-551h-81v551h-178v-551h-81v290q-24 -6 -47 -8.5t-49 -2.5q-17 0 -43 3q15 -30 15 -64zM853 615q-16 72 -36 98t-58 26q-14 0 -26.5 -1
t-25.5 -1q-35 0 -63.5 11t-52.5 40.5t-43 84.5l66 23q17 -44 35.5 -66t61.5 -22q14 0 30 2t34 2q37 0 65 -17t49.5 -60t39.5 -120h-76z" />
    <glyph glyph-name="odeva" unicode="&#x913;" horiz-adv-x="1023" 
d="M470 218q0 -70 -45.5 -104t-112.5 -34q-86 0 -153 64t-130 212l71 26q43 -106 93 -167.5t112 -61.5q37 0 61.5 17.5t24.5 56.5q0 37 -20.5 66t-52.5 54q-27 -5 -58 -6l-5 70q68 2 96.5 23.5t28.5 59.5q0 36 -23.5 52t-54.5 16q-38 0 -67.5 -10t-63.5 -27l-25 69
q26 14 64 26t88 12q78 0 119.5 -39t41.5 -98q0 -78 -67 -120q11 -10 20 -20q38 -5 74 -5q32 0 57 3t51 10v188h-73v71h517v-71h-104v-551h-81v551h-178v-551h-81v290q-24 -6 -47 -8.5t-49 -2.5q-17 0 -43 3q15 -30 15 -64zM854 615q-21 79 -41.5 124.5t-45.5 64.5t-59 19
q-23 0 -39.5 -4.5t-30.5 -9.5l-24 73q39 14 91 14q54 0 93.5 -25.5t71 -87t59.5 -168.5h-75z" />
    <glyph glyph-name="audeva" unicode="&#x914;" horiz-adv-x="1023" 
d="M470 218q0 -70 -45.5 -104t-112.5 -34q-86 0 -153 64t-130 212l71 26q43 -106 93 -167.5t112 -61.5q37 0 61.5 17.5t24.5 56.5q0 37 -20.5 66t-52.5 54q-27 -5 -58 -6l-5 70q68 2 96.5 23.5t28.5 59.5q0 36 -23.5 52t-54.5 16q-38 0 -67.5 -10t-63.5 -27l-25 69
q26 14 64 26t88 12q78 0 119.5 -39t41.5 -98q0 -78 -67 -120q11 -10 20 -20q38 -5 74 -5q32 0 57 3t51 10v188h-73v71h517v-71h-104v-551h-81v551h-178v-551h-81v290q-24 -6 -47 -8.5t-49 -2.5q-17 0 -43 3q15 -30 15 -64zM844 615q-27 39 -49.5 58t-44 24.5t-47.5 5.5
q-20 0 -41 -6t-41 -15l-26 69q22 10 47.5 16t54.5 6q45 0 80 -21.5t59 -59.5l4 2q-21 52 -39.5 80.5t-41 40.5t-52.5 12q-24 0 -40 -4t-30 -10l-23 69q39 14 91 14q54 0 93.5 -25.5t71 -87t59.5 -168.5h-85z" />
    <glyph glyph-name="kadeva" unicode="&#x915;" horiz-adv-x="762" 
d="M777 551h-325v-202q48 50 117 50q65 0 106 -41.5t41 -118.5q0 -47 -15 -98.5t-50 -101.5l-72 41q25 32 41 74t16 83q0 47 -20 70t-54 23q-54 0 -110 -72v-258h-81v174q-24 -20 -59.5 -38t-85.5 -18q-48 0 -89 19t-66 57.5t-25 95.5q0 80 55 127t143 47q23 0 51.5 -3.5
t43.5 -6.5l-6 -73q-16 4 -40.5 7t-43.5 3q-58 0 -90 -26.5t-32 -72.5q0 -53 30.5 -78.5t70.5 -25.5q44 0 78.5 21t64.5 51v291h-371v71h777v-71z" />
    <glyph glyph-name="khadeva" unicode="&#x916;" horiz-adv-x="818" 
d="M729 551v-551h-81v45q-35 -19 -76.5 -28.5t-83.5 -9.5q-108 0 -206.5 53.5t-196.5 178.5q-27 35 -36 57.5t-9 41.5q0 21 15 38t49 17q25 0 43.5 -11.5t33.5 -31.5q21 19 28.5 48.5t7.5 59.5q0 26 -3.5 49.5t-12.5 43.5h-201v71h833v-71h-104zM534 232q35 0 64 14.5
t50 33.5v271h-367q17 -37 17 -93q0 -82 -35 -130t-97 -75q70 -84 147.5 -129t176.5 -45q43 0 82 10t76 33v76q-23 -14 -55 -24t-72 -10q-47 0 -84.5 19.5t-59 54t-21.5 81.5q0 73 48 113.5t127 40.5q17 0 44 -2.5t41 -7.5l-6 -69q-15 4 -33.5 7t-36.5 3q-48 0 -75.5 -22
t-27.5 -66q0 -43 27.5 -63.5t69.5 -20.5z" />
    <glyph glyph-name="gadeva" unicode="&#x917;" horiz-adv-x="563" 
d="M208 551v-317q0 -26 -13 -41t-35 -15q-26 0 -53.5 21t-46.5 51t-19 58q0 22 13.5 36.5t47.5 14.5h25v192h-127v71h578v-71h-104v-551h-81v551h-185z" />
    <glyph glyph-name="ghadeva" unicode="&#x918;" horiz-adv-x="591" 
d="M605 551h-103v-551h-81v166q-31 -20 -69 -34t-93 -14q-77 0 -125 40t-48 108q0 28 10 54t32 46q-40 19 -63 54t-23 77q0 31 10 54h-52v71h605v-71zM167 269q0 -42 28 -61.5t72 -19.5q52 0 90.5 21.5t63.5 50.5v291h-276q-22 -24 -22 -57q0 -37 21.5 -57t55.5 -25
q28 7 63 7q27 0 45 -2l-6 -70q-7 1 -15 1h-14q-49 0 -77.5 -20t-28.5 -59z" />
    <glyph glyph-name="ngadeva" unicode="&#x919;" horiz-adv-x="647" 
d="M358 222q-29 0 -58 -7t-52 -18q-46 27 -78.5 65t-32.5 90q0 28 10 48t27 33q22 17 53 24.5t81 7.5h93v86h-401v71h662v-71h-180v-157h-184q-31 0 -44 -3t-22 -10q-15 -12 -15 -34q0 -24 13.5 -40.5t30.5 -29.5q46 17 101 17q74 0 123 -38t49 -102q0 -68 -49 -111
t-148 -43q-98 0 -175.5 44t-136.5 114l61 49q57 -68 116.5 -100.5t134.5 -32.5q116 0 116 78q0 34 -24.5 52t-70.5 18zM511 337q0 23 15 39t37 16t37 -16t15 -39t-15 -39t-37 -16t-37 16t-15 39z" />
    <glyph glyph-name="cadeva" unicode="&#x91a;" horiz-adv-x="634" 
d="M649 551h-104v-551h-80v165q-26 -17 -62 -32t-86 -15q-77 0 -126.5 43t-49.5 114q0 29 12.5 54t31.5 42l-147 -2v72h293q18 0 35.5 -0.5t22.5 -0.5l-7 -70h-32q-58 0 -93.5 -24.5t-35.5 -71.5q0 -43 29 -64.5t67 -21.5q49 0 85 21.5t63 50.5v291h-465v71h649v-71z" />
    <glyph glyph-name="chadeva" unicode="&#x91b;" horiz-adv-x="701" 
d="M296 70q76 0 139.5 31.5t101 85.5t37.5 123q0 46 -23 77.5t-64 31.5q-34 0 -48.5 -18t-14.5 -43q0 -32 26 -58t85 -39l-33 -63q-81 23 -118 64.5t-37 93.5q0 48 27.5 82t80.5 43v70h-455v71h715v-71h-180v-74q51 -13 84.5 -55t33.5 -114q0 -58 -25 -113t-71.5 -99
t-112.5 -70t-148 -26q-97 0 -146 41t-49 106q0 21 7.5 43.5t23.5 40.5q-42 20 -65.5 52.5t-23.5 75.5q0 60 45 92t118 32q17 0 42.5 -2.5t39.5 -7.5l-6 -69q-14 4 -31.5 7.5t-38.5 3.5q-88 0 -88 -65q0 -29 22 -45t56 -24q29 9 64 9q11 0 23 -1t19 -2l-6 -70q-6 1 -13.5 1
h-12.5q-94 0 -94 -70q0 -40 31 -59t83 -19z" />
    <glyph glyph-name="jadeva" unicode="&#x91c;" horiz-adv-x="742" 
d="M653 551v-551h-81v370h-137q-41 0 -57 3q36 -30 58 -70t22 -85q0 -46 -20.5 -77t-54 -46t-73.5 -15q-53 0 -101 30.5t-92 101t-86 189.5l71 25q46 -134 96 -203.5t108 -69.5q32 0 52.5 17t20.5 57q0 44 -30.5 82.5t-75.5 67.5l29 64h270v110h-572v71h757v-71h-104z" />
    <glyph glyph-name="jhadeva" unicode="&#x91d;" horiz-adv-x="756" 
d="M271 222q-29 0 -58 -7t-52 -18q-47 28 -79 66t-32 89q0 28 10 48t27 33q23 17 51.5 24.5t79.5 7.5h96v86h-314v71h771v-71h-104v-551h-81v209q-25 -7 -49 -9.5t-53 -2.5q-20 0 -46 5q9 -22 9 -48q0 -65 -41.5 -102.5t-116.5 -47.5q29 -12 60.5 -23t65.5 -21l-33 -70
q-57 26 -109 54.5t-97 56.5q-59 3 -93.5 17.5t-34.5 46.5q0 22 13.5 36.5t39.5 14.5q20 0 41.5 -10.5t51.5 -35.5q14 -2 25 -2q70 0 108.5 20.5t38.5 64.5q0 33 -24.5 51t-70.5 18zM480 268q54 0 106 15v268h-191v-157h-184q-31 0 -44 -3t-22 -10q-15 -12 -15 -34
q0 -24 14 -40.5t30 -29.5q46 17 101 17q42 0 77 -13q28 -6 58.5 -9.5t69.5 -3.5z" />
    <glyph glyph-name="nyadeva" unicode="&#x91e;" horiz-adv-x="742" 
d="M192 420q31 14 63.5 20t59.5 6q67 0 114 -34t56 -97h8q24 0 43.5 4.5t35.5 12.5v219h-572v71h756v-71h-103v-551h-81v256q-40 -11 -88 -11h-1q-10 -50 -41 -77.5t-69.5 -38.5t-72.5 -11q-86 0 -153 53t-118 167l69 27q40 -93 85 -133t111 -40q55 0 86 26t31 69
q0 46 -28.5 66t-69.5 20q-25 0 -48 -7t-46 -18z" />
    <glyph glyph-name="ttadeva" unicode="&#x91f;" horiz-adv-x="504" 
d="M519 551h-148v-202h-55q-48 0 -80 -8t-55 -23q-55 -38 -55 -103q0 -49 22 -80t57.5 -46t77.5 -15q54 0 92 12.5t80 34.5l27 -74q-44 -20 -94 -33.5t-102 -13.5q-69 0 -123.5 26t-85.5 75t-31 119q0 65 34 109.5t89 67.5t119 23h2v131h-290v71h519v-71z" />
    <glyph glyph-name="tthadeva" unicode="&#x920;" horiz-adv-x="585" 
d="M600 551h-229v-137q79 -30 123.5 -86.5t44.5 -129.5q0 -70 -33 -113.5t-88 -64t-121 -20.5q-113 0 -182 56t-69 160q0 67 34 112.5t89 68.5t118 23h3v131h-290v71h600v-71zM293 72q71 0 118 30.5t47 97.5q0 48 -29 86.5t-86 62.5h-35q-74 0 -121 -28q-29 -17 -45 -44.5
t-16 -66.5q0 -70 47.5 -104t119.5 -34z" />
    <glyph glyph-name="ddadeva" unicode="&#x921;" horiz-adv-x="577" 
d="M358 222q-29 0 -58 -7t-52 -18q-47 28 -79 66t-32 89q0 28 10 48t27 33q22 17 53 24.5t81 7.5h93v86h-401v71h592v-71h-110v-157h-184q-31 0 -44 -3t-22 -10q-15 -12 -15 -34q0 -24 13.5 -40.5t30.5 -29.5q46 17 101 17q74 0 123 -38t49 -102q0 -68 -49 -111t-148 -43
q-98 0 -175.5 44t-136.5 114l61 49q57 -68 116.5 -100.5t134.5 -32.5q116 0 116 78q0 34 -24.5 52t-70.5 18z" />
    <glyph glyph-name="ddhadeva" unicode="&#x922;" horiz-adv-x="563" 
d="M307 0q-78 0 -136.5 27.5t-91.5 79t-33 124.5q0 70 36 117.5t95 72t128 25.5v105h-305v71h577v-71h-192v-176h-39q-64 0 -98.5 -8.5t-59.5 -25.5q-30 -19 -46 -49t-16 -71q0 -58 32 -95t90 -51q-15 40 -15 82q0 34 16.5 64t49 48.5t81.5 18.5t80.5 -18.5t47 -48.5
t15.5 -64q0 -70 -57.5 -113.5t-158.5 -43.5zM306 140q0 -37 17 -70q55 1 90 23.5t35 63.5q0 30 -17.5 47t-45.5 17q-35 0 -57 -21.5t-22 -59.5z" />
    <glyph glyph-name="nnadeva" unicode="&#x923;" horiz-adv-x="723" 
d="M634 551v-551h-81v551h-133v-230q0 -42 -8.5 -71.5t-26.5 -51.5q-21 -25 -54 -38.5t-80 -13.5q-93 0 -137 59q-17 23 -26 58t-9 89v199h-79v71h737v-71h-103zM249 217q52 0 72 32q11 17 14.5 39t3.5 65v198h-179v-198q0 -39 4 -62t14 -40t27 -25.5t44 -8.5z" />
    <glyph glyph-name="tadeva" unicode="&#x924;" horiz-adv-x="570" 
d="M481 551v-551h-81v328h-109q-61 0 -91.5 -6t-49.5 -23q-24 -19 -24 -62q0 -49 37 -94.5t108 -102.5l-54 -52q-47 40 -86 80t-62.5 83t-23.5 91q0 34 13.5 62.5t34.5 46.5q29 25 70 36.5t109 11.5h128v152h-400v71h584v-71h-103z" />
    <glyph glyph-name="thadeva" unicode="&#x925;" horiz-adv-x="642" 
d="M553 551v-551h-81v180q-29 -19 -69 -33.5t-95 -14.5q-85 0 -144.5 48.5t-80.5 141.5q95 20 133.5 55.5t38.5 89.5q0 49 -23.5 75t-60.5 26q-25 0 -41 -12t-16 -35q0 -51 81 -60l-8 -70q-65 9 -103 39.5t-38 88.5q0 56 36.5 84.5t89.5 28.5q41 0 78.5 -17.5t61.5 -53.5
t24 -92q0 -74 -40 -120t-114 -75q23 -36 52 -53.5t80 -17.5q52 0 89 20t69 52v276h-82v71h266v-71h-103z" />
    <glyph glyph-name="dadeva" unicode="&#x926;" horiz-adv-x="520" 
d="M413 -58q-21 34 -40 69t-31 62q-12 -2 -26 -3.5t-29 -1.5q-42 0 -84.5 10.5t-78 34t-57 63t-21.5 96.5q0 44 15 75.5t41 53.5q33 29 81 42t107 13h5v95h-295v71h534v-71h-158v-166h-49q-59 0 -94 -7t-60 -23q-23 -15 -35 -38t-12 -55q0 -53 39.5 -87.5t121.5 -34.5h12
t13 1q-6 20 -6 35q0 34 21 49t46 15q43 0 65.5 -24.5t22.5 -53.5q0 -32 -14.5 -49.5t-36.5 -26.5q12 -24 28.5 -49.5t41.5 -60.5z" />
    <glyph glyph-name="dhadeva" unicode="&#x927;" horiz-adv-x="615" 
d="M630 551h-104v-551h-81v150q-31 -20 -67.5 -33.5t-94.5 -13.5q-77 0 -124.5 40.5t-47.5 107.5q0 27 9 52t28 45q-47 18 -76.5 53.5t-29.5 91.5q0 60 41 99.5t104 39.5q53 0 88.5 -28t35.5 -73q0 -47 -40 -88l-61 39q10 10 15 21.5t5 22.5q0 15 -10 28.5t-36 13.5
q-28 0 -48 -22t-20 -57q0 -32 15.5 -51.5t40 -28.5t51.5 -12q30 8 65 8q11 0 24.5 -1t20.5 -2l-7 -70q-6 1 -14.5 1h-13.5q-50 0 -78.5 -20.5t-28.5 -58.5q0 -41 28.5 -61t72.5 -20q53 0 90 21.5t63 50.5v306h-62v71h247v-71z" />
    <glyph glyph-name="nadeva" unicode="&#x928;" horiz-adv-x="555" 
d="M0 622h569v-71h-103v-551h-81v298h-181v-54q0 -28 -14 -42t-37 -14q-25 0 -51.5 21t-45.5 51t-19 58q0 22 13.5 36.5t47.5 14.5h287v182h-385v71z" />
    <glyph glyph-name="nnnadeva" unicode="&#x929;" horiz-adv-x="555" 
d="M0 622h569v-71h-103v-551h-81v298h-181v-54q0 -28 -14 -42t-37 -14q-25 0 -51.5 21t-45.5 51t-19 58q0 22 13.5 36.5t47.5 14.5h287v182h-385v71zM126 36q0 24 16 41t39 17t39 -17t16 -41q0 -25 -16 -41.5t-39 -16.5t-39 16.5t-16 41.5z" />
    <glyph glyph-name="padeva" unicode="&#x92a;" horiz-adv-x="568" 
d="M479 551v-551h-81v191q-29 -19 -63 -32t-81 -13q-40 0 -72.5 13.5t-53.5 34.5q-26 27 -37.5 63.5t-11.5 100.5v193h-79v71h583v-71h-104zM398 551h-238v-182q0 -41 3 -65t9.5 -38.5t17.5 -25.5q23 -23 73 -23q40 0 75 19t60 44v271z" />
    <glyph glyph-name="phadeva" unicode="&#x92b;" horiz-adv-x="771" 
d="M460 551v-202q25 24 54 37t64 13q64 0 105.5 -41.5t41.5 -118.5q0 -47 -15.5 -98.5t-49.5 -101.5l-72 41q25 32 41 74t16 83q0 47 -20 70t-55 23q-53 0 -110 -73v-257h-81v193q-24 -19 -56 -33t-75 -14q-40 0 -72 14.5t-51 36.5q-25 29 -35.5 64.5t-10.5 92.5v197h-79v71
h786v-71h-326zM160 551v-191q0 -55 6 -79t22 -41q20 -23 60 -23q41 0 73 17t58 44v273h-219z" />
    <glyph glyph-name="badeva" unicode="&#x92c;" horiz-adv-x="571" 
d="M585 551h-103v-551h-81v165q-27 -18 -65.5 -32.5t-94.5 -14.5q-57 0 -101 21t-69 58.5t-25 88.5q0 86 60.5 132t158.5 46q13 0 33.5 -1.5t40 -4t30.5 -4.5l-6 -69q-20 4 -45 7t-50 3q-20 0 -38 -3l135 -168q19 14 36 32v295h-401v71h585v-71zM127 287q0 -53 33.5 -78
t81.5 -25q18 0 34.5 3t31.5 8l-140 175q-41 -28 -41 -83z" />
    <glyph glyph-name="bhadeva" unicode="&#x92d;" horiz-adv-x="703" 
d="M174 632q37 0 66 -10.5t51 -35.5q18 -20 29.5 -53.5t11.5 -95.5v-116h201v230h-131v71h315v-71h-103v-551h-81v250h-201v-37q0 -33 -15 -47.5t-34 -14.5t-40 12.5t-39 32t-29 41.5t-11 41q0 18 13.5 30.5t46.5 12.5h29v105q0 47 -5.5 72t-15.5 40q-20 30 -63 30
q-27 0 -41 -13t-14 -34q0 -28 23.5 -43t80.5 -18l-8 -71q-75 6 -119.5 36.5t-44.5 94.5q0 58 38 85t90 27z" />
    <glyph glyph-name="madeva" unicode="&#x92e;" horiz-adv-x="598" 
d="M509 551v-551h-81v250h-221v-37q0 -33 -14.5 -47.5t-33.5 -14.5t-40 12.5t-39 32t-29.5 41.5t-11.5 41q0 18 13.5 30.5t47.5 12.5h26v230h-126v71h612v-71h-103zM428 551h-221v-230h221v230z" />
    <glyph glyph-name="yadeva" unicode="&#x92f;" horiz-adv-x="580" 
d="M595 622v-71h-104v-551h-81v179q-28 -18 -67 -32.5t-90 -14.5q-90 0 -145.5 60.5t-69.5 160.5q62 13 92 36.5t30 67.5q0 28 -11.5 52t-25.5 42h-123v71h595zM129 301q19 -49 50 -73.5t80 -24.5q50 0 87 21t64 50v277h-199q29 -52 29 -106q0 -108 -111 -144z" />
    <glyph glyph-name="radeva" unicode="&#x930;" horiz-adv-x="409" 
d="M395 42l-54 -54q-59 49 -111 99t-92 93.5t-63 75.5q-23 31 -29 49t-6 35q0 19 15 36t49 17q25 0 43.5 -11.5t33.5 -32.5q39 20 57 50t18 69q0 23 -5 45.5t-12 37.5h-239v71h424v-71h-104q16 -35 16 -93q0 -55 -22 -93t-60 -64.5t-87 -46.5q45 -52 104.5 -107.5
t123.5 -104.5z" />
    <glyph glyph-name="rradeva" unicode="&#x931;" horiz-adv-x="409" 
d="M395 42l-54 -54q-59 49 -111 99t-92 93.5t-63 75.5q-23 31 -29 49t-6 35q0 19 15 36t49 17q25 0 43.5 -11.5t33.5 -32.5q39 20 57 50t18 69q0 23 -5 45.5t-12 37.5h-239v71h424v-71h-104q16 -35 16 -93q0 -55 -22 -93t-60 -64.5t-87 -46.5q45 -52 104.5 -107.5
t123.5 -104.5zM53 36q0 24 16 41t39 17t39 -17t16 -41q0 -25 -16 -41.5t-39 -16.5t-39 16.5t-16 41.5z" />
    <glyph glyph-name="ladeva" unicode="&#x932;" horiz-adv-x="678" 
d="M0 551v71h693v-71h-104v-551h-81v355q-6 1 -14 1q-24 0 -49 -12t-48 -44t-41 -92l-77 24q12 46 32 81q-24 18 -48 29t-54 11q-41 0 -62 -23t-21 -59q0 -38 21.5 -72.5t62 -72.5t99.5 -86l-54 -52q-59 50 -106.5 95.5t-75.5 92t-28 99.5t24.5 86.5t61.5 49t73 15.5
q44 0 80.5 -14.5t69.5 -41.5q58 56 145 56h9v125h-508z" />
    <glyph glyph-name="lladeva" unicode="&#x933;" horiz-adv-x="760" 
d="M0 551v71h775v-71h-181v-119q52 -15 86 -61.5t34 -120.5q0 -54 -21.5 -96t-61 -66t-93.5 -24t-94 21.5t-79 57.5q-31 -46 -67.5 -62.5t-81.5 -16.5q-47 0 -85.5 21.5t-61.5 63t-23 103.5q0 56 22.5 98t62 65.5t91.5 23.5q54 0 93.5 -21.5t78.5 -57.5q26 39 55 56t64 21
v114h-513zM404 214q-2 -6 -5 -11q33 -33 63.5 -50.5t65.5 -17.5q42 0 73.5 27.5t31.5 89.5q0 64 -27.5 90t-64.5 26q-38 0 -64.5 -26.5t-50.5 -79.5zM127 250q0 -62 27 -88.5t64 -26.5q38 0 65 26.5t50 78.5l22 49l5 10q-33 33 -63 51t-65 18q-42 0 -73.5 -28t-31.5 -90z
" />
    <glyph glyph-name="llladeva" unicode="&#x934;" horiz-adv-x="760" 
d="M0 551v71h775v-71h-181v-119q52 -15 86 -61.5t34 -120.5q0 -54 -21.5 -96t-61 -66t-93.5 -24t-94 21.5t-79 57.5q-31 -46 -67.5 -62.5t-81.5 -16.5q-47 0 -85.5 21.5t-61.5 63t-23 103.5q0 56 22.5 98t62 65.5t91.5 23.5q54 0 93.5 -21.5t78.5 -57.5q26 39 55 56t64 21
v114h-513zM404 214q-2 -6 -5 -11q33 -33 63.5 -50.5t65.5 -17.5q42 0 73.5 27.5t31.5 89.5q0 64 -27.5 90t-64.5 26q-38 0 -64.5 -26.5t-50.5 -79.5zM127 250q0 -62 27 -88.5t64 -26.5q38 0 65 26.5t50 78.5l22 49l5 10q-33 33 -63 51t-65 18q-42 0 -73.5 -28t-31.5 -90z
M154 -79q0 24 16 41t39 17t39 -17t16 -41q0 -25 -16 -41.5t-39 -16.5t-39 16.5t-16 41.5z" />
    <glyph glyph-name="vadeva" unicode="&#x935;" horiz-adv-x="556" 
d="M571 551h-104v-551h-80v165q-26 -18 -63.5 -32.5t-90.5 -14.5q-54 0 -96.5 21t-66.5 58.5t-24 88.5q0 86 57.5 132t151.5 46q13 0 32.5 -1.5t38 -4t28.5 -4.5l-5 -73q-19 4 -43 7t-47 3q-62 0 -97 -27t-35 -77q0 -51 31.5 -75t76.5 -24q52 0 89.5 22.5t62.5 49.5v291
h-387v71h571v-71z" />
    <glyph glyph-name="shadeva" unicode="&#x936;" horiz-adv-x="680" 
d="M122 189q-35 0 -58.5 17.5t-23.5 48.5q0 29 18 44t46 15q18 0 37.5 -7.5t49.5 -30.5q50 16 82 59t32 108q0 55 -29.5 89t-76.5 34q-31 0 -46 -14t-15 -36q0 -16 9.5 -33t38 -29t84.5 -14l-17 -70q-94 6 -140.5 47t-46.5 100q0 51 35.5 83t102.5 32q47 0 88 -21.5
t66.5 -64t25.5 -106.5q0 -69 -34.5 -127.5t-95.5 -91.5q45 -39 87 -86.5t73 -91.5l-64 -44q-51 72 -92.5 118.5t-78.5 76.5q-27 -5 -57 -5zM591 551v-551h-81v551h-89v71h274v-71h-104z" />
    <glyph glyph-name="ssadeva" unicode="&#x937;" horiz-adv-x="578" 
d="M593 622v-71h-104v-551h-81v191q-30 -17 -67 -31t-87 -14q-40 0 -72.5 13.5t-53.5 34.5q-26 27 -37.5 63.5t-11.5 100.5v193h-79v71h593zM408 551h-203l203 -264v264zM189 240q23 -23 73 -23q26 0 51 8t47 20l-201 262v-138q0 -41 3 -65t9.5 -38.5t17.5 -25.5z" />
    <glyph glyph-name="sadeva" unicode="&#x938;" horiz-adv-x="676" 
d="M587 551v-551h-81v266q-29 -9 -58 -12t-68 -3q-42 0 -88.5 7.5t-79.5 18.5q-20 -13 -45 -24q41 -52 96.5 -107t116.5 -104l-54 -54q-56 49 -105.5 99t-87.5 93.5t-60 75.5q-22 31 -27.5 49t-5.5 35q0 19 15 36t49 17q25 0 43.5 -11.5t33.5 -31.5q21 19 28.5 48.5
t7.5 59.5t-4.5 54t-11.5 39h-201v71h691v-71h-104zM369 322q39 0 71 4t66 13v212h-225q7 -17 12 -40t5 -53q0 -42 -9.5 -73t-26.5 -52q52 -11 107 -11z" />
    <glyph glyph-name="hadeva" unicode="&#x939;" horiz-adv-x="531" 
d="M321 69q36 11 59 29t23 50q0 38 -29 59.5t-94 21.5q-69 0 -105.5 -28.5t-36.5 -76.5q0 -31 11.5 -60t47 -64.5t105.5 -88.5l-54 -53q-92 71 -141 133t-49 139q0 38 15.5 67.5t41.5 50.5q-19 18 -32.5 44t-13.5 60q0 28 10 48t27 33q22 17 52 24.5t71 7.5h132v86h-361v71
h546v-71h-104v-157h-212q-31 0 -44 -3t-22 -10q-15 -12 -15 -34q0 -20 10 -35.5t24 -27.5q47 16 101 16q68 0 112 -21t64.5 -55t20.5 -71q0 -59 -34.5 -96.5t-98.5 -54.5z" />
    <glyph glyph-name="oevowelsigndeva" unicode="&#x93a;" 
d="M-170 615v190h81v-190h-81z" />
    <glyph glyph-name="ooevowelsigndeva" unicode="&#x93b;" horiz-adv-x="259" 
d="M170 551v-551h-81v551h-89v71h273v-71h-103zM89 615v190h81v-190h-81z" />
    <glyph glyph-name="nuktadeva" unicode="&#x93c;" 
d="M-338 -134q0 24 16 41t39 17t39 -17t16 -41q0 -25 -16 -41.5t-39 -16.5t-39 16.5t-16 41.5z" />
    <glyph glyph-name="avagrahadeva" unicode="&#x93d;" horiz-adv-x="467" 
d="M420 187q0 -66 -42.5 -105.5t-112.5 -39.5q-47 0 -86 17t-76 58t-77 114l69 35q38 -69 75 -110t87 -41q36 0 58.5 18t22.5 55q0 26 -9.5 46.5t-33 44.5t-66.5 58q-45 36 -69 63.5t-33 51.5t-9 48q0 62 46 93q20 14 49.5 21.5t92.5 7.5h93v-71h-102q-39 0 -54 -3t-24 -8
q-21 -13 -21 -41q0 -17 9 -33t31 -36t60 -51q45 -37 71.5 -66.5t38.5 -59t12 -66.5z" />
    <glyph glyph-name="aavowelsigndeva" unicode="&#x93e;" horiz-adv-x="259" 
d="M170 551v-551h-81v551h-89v71h273v-71h-103z" />
    <glyph glyph-name="ivowelsigndeva" unicode="&#x93f;" horiz-adv-x="259" 
d="M89 551h-89v71h80q-12 22 -19.5 47t-7.5 55q0 78 58 125t155 47q141 0 249.5 -76.5t188.5 -204.5h-84q-153 209 -337 209q-70 0 -109.5 -29.5t-39.5 -80.5q0 -30 9.5 -52.5t21.5 -39.5h108v-71h-103v-551h-81v551z" />
    <glyph glyph-name="iivowelsigndeva" unicode="&#x940;" horiz-adv-x="259" 
d="M-185 615q-17 35 -26 67t-9 66q0 64 42 106t117 42q60 0 100 -28.5t69 -89t55 -156.5h110v-71h-103v-551h-81v551h-89v71h87q-28 104 -58.5 153.5t-85.5 49.5q-40 0 -61 -24.5t-21 -67.5q0 -34 10 -61.5t24 -56.5h-80z" />
    <glyph glyph-name="uvowelsigndeva" unicode="&#x941;" 
d="M-248 -12q54 23 112 23q75 0 116.5 -38.5t41.5 -101.5q0 -61 -46.5 -100t-132.5 -39q-97 0 -167.5 46t-130.5 122l61 43q38 -49 73.5 -79.5t75 -45t88.5 -14.5q106 0 106 74q0 33 -24.5 49t-55.5 16q-27 0 -48.5 -5.5t-42.5 -16.5z" />
    <glyph glyph-name="uuvowelsigndeva" unicode="&#x942;" 
d="M-63 -245q-25 -11 -53.5 -17t-56.5 -6q-75 0 -117.5 39.5t-42.5 102.5q0 57 46 97t125 40q75 0 131 -28t98.5 -73.5t77.5 -98.5l-62 -39q-54 82 -110 126.5t-129 44.5q-51 0 -77 -19.5t-26 -51.5q0 -38 25 -53t56 -15q27 0 48 5.5t42 15.5z" />
    <glyph glyph-name="rvocalicvowelsigndeva" unicode="&#x943;" 
d="M27 -233q-25 -13 -59 -24t-74 -11q-75 0 -117.5 39.5t-42.5 102.5q0 56 44.5 97.5t132.5 46.5l7 -66q-58 -7 -84 -29t-26 -55q0 -34 25 -49.5t56 -15.5t55 7.5t58 25.5z" />
    <glyph glyph-name="ecandravowelsigndeva" unicode="&#x945;" 
d="M69 863q-23 -101 -77 -142t-130 -41q-72 0 -126 44t-88 139l71 24q26 -71 59.5 -104.5t86.5 -33.5q57 0 84 36.5t44 103.5z" />
    <glyph glyph-name="eshortvowelsigndeva" unicode="&#x946;" 
d="M-170 615q-16 72 -36 98t-58 26q-14 0 -26.5 -1t-25.5 -1q-35 0 -63.5 11t-52.5 40.5t-43 84.5l66 23q17 -44 35.5 -66t61.5 -22q14 0 30 2t34 2q37 0 65 -17t49.5 -60t39.5 -120h-76z" />
    <glyph glyph-name="evowelsigndeva" unicode="&#x947;" 
d="M-169 615q-21 79 -41.5 124.5t-45.5 64.5t-59 19q-23 0 -39.5 -4.5t-30.5 -9.5l-24 73q39 14 91 14q54 0 93.5 -25.5t71 -87t59.5 -168.5h-75z" />
    <glyph glyph-name="aivowelsigndeva" unicode="&#x948;" 
d="M-179 615q-27 39 -49.5 58t-44 24.5t-47.5 5.5q-20 0 -41 -6t-41 -15l-26 69q22 10 47.5 16t54.5 6q45 0 80 -21.5t59 -59.5l4 2q-21 52 -39.5 80.5t-41 40.5t-52.5 12q-24 0 -40 -4t-30 -10l-23 69q39 14 91 14q54 0 93.5 -25.5t71 -87t59.5 -168.5h-85z" />
    <glyph glyph-name="ocandravowelsigndeva" unicode="&#x949;" horiz-adv-x="259" 
d="M170 551v-551h-81v551h-89v71h273v-71h-103zM298 863q-23 -101 -77 -142t-130 -41q-72 0 -126 44t-88 139l71 24q26 -71 59.5 -104.5t86.5 -33.5q57 0 84 36.5t44 103.5z" />
    <glyph glyph-name="oshortvowelsigndeva" unicode="&#x94a;" horiz-adv-x="259" 
d="M170 551v-551h-81v551h-89v71h273v-71h-103zM89 615q-16 72 -36 98t-58 26q-14 0 -26.5 -1t-25.5 -1q-35 0 -63.5 11t-52.5 40.5t-43 84.5l66 23q17 -44 35.5 -66t61.5 -22q14 0 30 2t34 2q37 0 65 -17t49.5 -60t39.5 -120h-76z" />
    <glyph glyph-name="ovowelsigndeva" unicode="&#x94b;" horiz-adv-x="259" 
d="M170 551v-551h-81v551h-89v71h273v-71h-103zM90 615q-21 79 -41.5 124.5t-45.5 64.5t-59 19q-23 0 -39.5 -4.5t-30.5 -9.5l-24 73q39 14 91 14q54 0 93.5 -25.5t71 -87t59.5 -168.5h-75z" />
    <glyph glyph-name="auvowelsigndeva" unicode="&#x94c;" horiz-adv-x="259" 
d="M170 551v-551h-81v551h-89v71h273v-71h-103zM80 615q-27 39 -49.5 58t-44 24.5t-47.5 5.5q-20 0 -41 -6t-41 -15l-26 69q22 10 47.5 16t54.5 6q45 0 80 -21.5t59 -59.5l4 2q-21 52 -39.5 80.5t-41 40.5t-52.5 12q-24 0 -40 -4t-30 -10l-23 69q39 14 91 14
q54 0 93.5 -25.5t71 -87t59.5 -168.5h-85z" />
    <glyph glyph-name="viramadeva" unicode="&#x94d;" 
d="M-179 -44q23 5 48 5q67 0 118 -25.5t90.5 -68.5t73.5 -94l-57 -41q-50 80 -101 117.5t-118 37.5q-12 0 -22.5 -1.5t-19.5 -3.5z" />
    <glyph glyph-name="uni094E" unicode="&#x94e;" horiz-adv-x="273" 
d="M184 551v-551h-81v622h185v-71h-104z" />
    <glyph glyph-name="awvowelsigndeva" unicode="&#x94f;" horiz-adv-x="259" 
d="M170 551v-551h-81v551h-89v71h273v-71h-103zM69 615q-16 45 -37.5 58t-43.5 13q-12 0 -27.5 -1.5t-33.5 -1.5q-32 0 -58.5 7.5t-50.5 32.5t-46 78l66 24q19 -48 39.5 -61.5t56.5 -13.5q13 0 29 1.5t33 1.5q31 0 55.5 -10t43 -38t30.5 -81q13 32 13 62q0 29 -13.5 44.5
t-45.5 25.5l-14 5q-56 18 -78.5 43.5t-22.5 78.5v12l70 1q-1 -3 -1 -14q0 -20 8.5 -33t44.5 -25l29 -11q40 -13 65 -36t25 -74q0 -22 -7 -46.5t-15 -41.5h-114z" />
    <glyph glyph-name="omdeva" unicode="&#x950;" horiz-adv-x="902" 
d="M502 816q0 21 14.5 35.5t35.5 14.5q20 0 35 -14.5t15 -35.5t-15 -35.5t-35 -14.5q-21 0 -35.5 14.5t-14.5 35.5zM759 833q-23 -101 -76.5 -142.5t-129.5 -41.5q-72 0 -126 44.5t-88 139.5l69 23q26 -70 60 -105t87 -35q58 0 86.5 37.5t44.5 104.5zM470 218
q0 -70 -45.5 -104t-112.5 -34q-86 0 -153 64t-130 212l71 26q43 -106 93 -167.5t112 -61.5q37 0 61.5 17.5t24.5 56.5q0 37 -20.5 66t-52.5 54q-27 -5 -58 -6l-5 70q68 2 96.5 23.5t28.5 59.5q0 36 -23.5 52t-54.5 16q-38 0 -67.5 -10t-63.5 -27l-25 69q26 14 64 26t88 12
q78 0 119.5 -39t41.5 -98q0 -40 -18.5 -72t-55.5 -53q16 -14 30.5 -20t30.5 -6q20 0 36 11.5t34 40.5l30 47q34 56 69.5 80t89.5 24q38 0 73 -18.5t57.5 -58.5t22.5 -102q0 -81 -47.5 -129t-127.5 -48q-46 0 -80 17.5t-66 45.5l49 53q22 -21 45 -33t55 -12q35 0 63.5 26.5
t28.5 80.5q0 52 -21.5 79.5t-54.5 27.5q-28 0 -48 -17t-44 -58l-27 -44q-22 -37 -50.5 -60t-75.5 -23v0q13 -28 13 -56z" />
    <glyph glyph-name="udattadeva" unicode="&#x951;" 
d="M-94 671h-71v201h71v-201z" />
    <glyph glyph-name="anudattadeva" unicode="&#x952;" 
d="M-413 -77h329v-71h-329v71z" />
    <glyph glyph-name="uni0953" unicode="&#x953;" 
d="M-152 683l-114 190h108l71 -190h-65z" />
    <glyph glyph-name="uni0954" unicode="&#x954;" 
d="M0 873l-113 -190h-65l71 190h107z" />
    <glyph glyph-name="candralongevowelsigndeva" unicode="&#x955;" 
d="M42 871q-20 -79 -70 -111t-118 -32q-64 0 -113.5 34t-79.5 109l68 24q22 -53 51 -75.5t76 -22.5q50 0 75 23.5t39 75.5zM-306 719h328v-64h-328v64z" />
    <glyph glyph-name="uevowelsigndeva" unicode="&#x956;" 
d="M-305 -182q-65 0 -115 19.5t-81 44.5l23 66q34 -26 73 -42.5t100 -16.5t99 16.5t73 42.5l24 -66q-31 -25 -81 -44.5t-115 -19.5z" />
    <glyph glyph-name="uuevowelsigndeva" unicode="&#x957;" 
d="M-305 -150q-65 0 -114.5 19t-81.5 45l23 66q34 -26 73 -42.5t100 -16.5t99 16.5t73 42.5l24 -66q-31 -26 -82.5 -45t-113.5 -19zM-305 -268q-65 0 -113 16t-83 36l23 66q44 -26 83.5 -36t89.5 -10t89.5 10t82.5 36l24 -66q-35 -20 -83 -36t-113 -16z" />
    <glyph glyph-name="qadeva" unicode="&#x958;" horiz-adv-x="762" 
d="M777 551h-325v-202q48 50 117 50q65 0 106 -41.5t41 -118.5q0 -47 -15 -98.5t-50 -101.5l-72 41q25 32 41 74t16 83q0 47 -20 70t-54 23q-54 0 -110 -72v-258h-81v174q-24 -20 -59.5 -38t-85.5 -18q-48 0 -89 19t-66 57.5t-25 95.5q0 80 55 127t143 47q23 0 51.5 -3.5
t43.5 -6.5l-6 -73q-16 4 -40.5 7t-43.5 3q-58 0 -90 -26.5t-32 -72.5q0 -53 30.5 -78.5t70.5 -25.5q44 0 78.5 21t64.5 51v291h-371v71h777v-71zM87 12q0 24 16 41t39 17t39 -17t16 -41q0 -25 -16 -41.5t-39 -16.5t-39 16.5t-16 41.5z" />
    <glyph glyph-name="khhadeva" unicode="&#x959;" horiz-adv-x="818" 
d="M729 551v-551h-81v45q-35 -19 -76.5 -28.5t-83.5 -9.5q-108 0 -206.5 53.5t-196.5 178.5q-27 35 -36 57.5t-9 41.5q0 21 15 38t49 17q25 0 43.5 -11.5t33.5 -31.5q21 19 28.5 48.5t7.5 59.5q0 26 -3.5 49.5t-12.5 43.5h-201v71h833v-71h-104zM534 232q35 0 64 14.5
t50 33.5v271h-367q17 -37 17 -93q0 -82 -35 -130t-97 -75q70 -84 147.5 -129t176.5 -45q43 0 82 10t76 33v76q-23 -14 -55 -24t-72 -10q-47 0 -84.5 19.5t-59 54t-21.5 81.5q0 73 48 113.5t127 40.5q17 0 44 -2.5t41 -7.5l-6 -69q-15 4 -33.5 7t-36.5 3q-48 0 -75.5 -22
t-27.5 -66q0 -43 27.5 -63.5t69.5 -20.5zM53 36q0 24 16 41t39 17t39 -17t16 -41q0 -25 -16 -41.5t-39 -16.5t-39 16.5t-16 41.5z" />
    <glyph glyph-name="ghhadeva" unicode="&#x95a;" horiz-adv-x="563" 
d="M208 551v-317q0 -26 -13 -41t-35 -15q-26 0 -53.5 21t-46.5 51t-19 58q0 22 13.5 36.5t47.5 14.5h25v192h-127v71h578v-71h-104v-551h-81v551h-185zM106 36q0 24 16 41t39 17t39 -17t16 -41q0 -25 -16 -41.5t-39 -16.5t-39 16.5t-16 41.5z" />
    <glyph glyph-name="zadeva" unicode="&#x95b;" horiz-adv-x="742" 
d="M653 551v-551h-81v370h-137q-41 0 -57 3q36 -30 58 -70t22 -85q0 -46 -20.5 -77t-54 -46t-73.5 -15q-53 0 -101 30.5t-92 101t-86 189.5l71 25q46 -134 96 -203.5t108 -69.5q32 0 52.5 17t20.5 57q0 44 -30.5 82.5t-75.5 67.5l29 64h270v110h-572v71h757v-71h-104z
M223 -55q0 24 16 41t39 17t39 -17t16 -41q0 -25 -16 -41.5t-39 -16.5t-39 16.5t-16 41.5z" />
    <glyph glyph-name="dddhadeva" unicode="&#x95c;" horiz-adv-x="577" 
d="M358 222q-29 0 -58 -7t-52 -18q-47 28 -79 66t-32 89q0 28 10 48t27 33q22 17 53 24.5t81 7.5h93v86h-401v71h592v-71h-110v-157h-184q-31 0 -44 -3t-22 -10q-15 -12 -15 -34q0 -24 13.5 -40.5t30.5 -29.5q46 17 101 17q74 0 123 -38t49 -102q0 -68 -49 -111t-148 -43
q-98 0 -175.5 44t-136.5 114l61 49q57 -68 116.5 -100.5t134.5 -32.5q116 0 116 78q0 34 -24.5 52t-70.5 18zM257 -134q0 24 16 41t39 17t39 -17t16 -41q0 -25 -16 -41.5t-39 -16.5t-39 16.5t-16 41.5z" />
    <glyph glyph-name="rhadeva" unicode="&#x95d;" horiz-adv-x="563" 
d="M307 0q-78 0 -136.5 27.5t-91.5 79t-33 124.5q0 70 36 117.5t95 72t128 25.5v105h-305v71h577v-71h-192v-176h-39q-64 0 -98.5 -8.5t-59.5 -25.5q-30 -19 -46 -49t-16 -71q0 -58 32 -95t90 -51q-15 40 -15 82q0 34 16.5 64t49 48.5t81.5 18.5t80.5 -18.5t47 -48.5
t15.5 -64q0 -70 -57.5 -113.5t-158.5 -43.5zM306 140q0 -37 17 -70q55 1 90 23.5t35 63.5q0 30 -17.5 47t-45.5 17q-35 0 -57 -21.5t-22 -59.5zM221 -134q0 24 16 41t39 17t39 -17t16 -41q0 -25 -16 -41.5t-39 -16.5t-39 16.5t-16 41.5z" />
    <glyph glyph-name="fadeva" unicode="&#x95e;" horiz-adv-x="771" 
d="M460 551v-202q25 24 54 37t64 13q64 0 105.5 -41.5t41.5 -118.5q0 -47 -15.5 -98.5t-49.5 -101.5l-72 41q25 32 41 74t16 83q0 47 -20 70t-55 23q-53 0 -110 -73v-257h-81v193q-24 -19 -56 -33t-75 -14q-40 0 -72 14.5t-51 36.5q-25 29 -35.5 64.5t-10.5 92.5v197h-79v71
h786v-71h-326zM160 551v-191q0 -55 6 -79t22 -41q20 -23 60 -23q41 0 73 17t58 44v273h-219zM87 12q0 24 16 41t39 17t39 -17t16 -41q0 -25 -16 -41.5t-39 -16.5t-39 16.5t-16 41.5z" />
    <glyph glyph-name="yyadeva" unicode="&#x95f;" horiz-adv-x="580" 
d="M595 622v-71h-104v-551h-81v179q-28 -18 -67 -32.5t-90 -14.5q-90 0 -145.5 60.5t-69.5 160.5q62 13 92 36.5t30 67.5q0 28 -11.5 52t-25.5 42h-123v71h595zM129 301q19 -49 50 -73.5t80 -24.5q50 0 87 21t64 50v277h-199q29 -52 29 -106q0 -108 -111 -144zM97 22
q0 24 16 41t39 17t39 -17t16 -41q0 -25 -16 -41.5t-39 -16.5t-39 16.5t-16 41.5z" />
    <glyph glyph-name="rrvocalicdeva" unicode="&#x960;" horiz-adv-x="853" 
d="M127 65l-47 67l246 149q-42 54 -72.5 76.5t-72.5 22.5q-29 0 -57 -8t-69 -29l-28 74q34 16 71 27.5t81 11.5q40 0 72 -12.5t63 -41t68 -76.5v225h-382v71h867v-71h-405v-222q34 2 67.5 6.5t54.5 10.5q-10 20 -10 41q0 32 21 47.5t46 15.5q38 0 60.5 -22t22.5 -55
q0 -28 -14 -45t-34 -25l27.5 -45.5l26.5 -40.5l-11 -33q-55 -7 -76.5 -27t-21.5 -41q0 -28 22 -40.5t59 -12.5q32 0 55 6.5t58 20.5l25 -63q-26 -13 -59 -23.5t-74 -10.5q-18 0 -35 3q-12 -15 -12 -35q0 -28 22 -40.5t59 -12.5q31 0 55 6.5t58 21.5l25 -63
q-26 -13 -59.5 -24t-73.5 -11q-80 0 -120 37.5t-40 94.5q0 27 15 52q-54 37 -54 103q0 34 23 63t70 47l-15.5 27.5t-11.5 23.5q-16 -6 -42.5 -11.5t-55.5 -9.5t-53 -5v-260h-80v234z" />
    <glyph glyph-name="llvocalicdeva" unicode="&#x961;" horiz-adv-x="699" 
d="M204 426q44 0 80.5 -14.5t69.5 -42.5q48 45 116 55v127h-470v71h714v-71h-164v-132q40 -12 73 -49t33 -106q0 -35 -7 -62.5t-15 -49.5q-54 -4 -83.5 -15t-40.5 -26t-11 -31q0 -28 22 -41t59 -13q32 0 55 7t58 21l25 -63q-26 -13 -59.5 -23.5t-74.5 -10.5q-18 0 -34 2
q-12 -14 -12 -34q0 -28 22 -40.5t59 -12.5q31 0 55 6.5t58 20.5l25 -63q-26 -13 -59.5 -23.5t-73.5 -10.5q-80 0 -120 37.5t-40 94.5q0 27 15 52q-54 37 -54 102q0 42 34.5 76t107.5 47q3 13 5.5 27t2.5 30q0 45 -22 66.5t-57 21.5q-25 0 -50.5 -12t-48.5 -44t-41 -92
l-77 24q12 46 32 81q-23 18 -47.5 29t-54.5 11q-41 0 -62 -23t-21 -59q0 -38 21.5 -72.5t62 -72.5t99.5 -86l-54 -52q-59 50 -106.5 95.5t-75.5 92t-28 99.5t24.5 86.5t61 49t73.5 15.5z" />
    <glyph glyph-name="dandadeva" unicode="&#x964;" horiz-adv-x="379" 
d="M194 622h81v-622h-81v622z" />
    <glyph glyph-name="dbldandadeva" unicode="&#x965;" horiz-adv-x="599" 
d="M414 622h81v-622h-81v622zM194 622h81v-622h-81v622z" />
    <glyph glyph-name="zerodeva" unicode="&#x966;" horiz-adv-x="551" 
d="M275 121q-59 0 -104 25.5t-70.5 70.5t-25.5 104t25.5 103.5t70.5 70t103 25.5q59 0 104.5 -25.5t71.5 -71t26 -104.5t-25.5 -103.5t-71 -69.5t-104.5 -25zM273 192q53 0 87 37t34 93q0 57 -32 92t-85 35t-86.5 -37t-33.5 -94q0 -56 31.5 -91t84.5 -35z" />
    <glyph glyph-name="onedeva" unicode="&#x967;" horiz-adv-x="551" 
d="M275 632q72 0 113 -38t41 -95q0 -39 -17.5 -75.5t-58.5 -77t-112 -90.5l121 -96q40 -31 55.5 -61t15.5 -65q0 -32 -12.5 -58t-34.5 -55l-65 49q13 15 21 30t8 34q0 20 -8.5 35t-31.5 34l-182 151l4 22q106 68 161 120t55 102q0 32 -20.5 48t-51.5 16q-32 0 -49 -14
t-17 -38q0 -22 15.5 -38.5t54.5 -27.5l-49 -58q-49 21 -73 52t-24 79q0 27 14.5 53.5t46 44t80.5 17.5z" />
    <glyph glyph-name="twodeva" unicode="&#x968;" horiz-adv-x="551" 
d="M477 33l-64 -45q-95 144 -174 220q-26 -4 -52 -4q-35 0 -59 17.5t-24 48.5q0 29 18 44t46 15q19 0 38 -8t49 -30q43 15 74 54.5t31 96.5q0 59 -32.5 89t-84.5 30q-35 0 -65 -8t-68 -27l-26 69q37 19 78.5 28t84.5 9q55 0 99.5 -21t70.5 -64t26 -107q0 -70 -35 -124
t-92 -83q45 -44 88.5 -100t72.5 -100z" />
    <glyph glyph-name="threedeva" unicode="&#x969;" horiz-adv-x="551" 
d="M90 594q25 14 65 26t93 12q80 0 124.5 -36.5t44.5 -97.5q0 -74 -59 -114q48 -19 70 -52t22 -75q0 -51 -31.5 -89.5t-89.5 -59.5q30 -30 59.5 -64.5t53.5 -68.5l-65 -42q-35 50 -65 89t-58 69q-29 -4 -61 -4q-35 0 -58.5 17.5t-23.5 47.5t18 45t46 15q20 0 42.5 -8.5
t56.5 -36.5q48 9 70.5 33t22.5 60q0 35 -26.5 59t-76.5 27q-33 -6 -71 -6l-4 71q60 0 92 10.5t44.5 29.5t12.5 44q0 35 -24 51t-62 16q-34 0 -68 -10t-69 -27z" />
    <glyph glyph-name="fourdeva" unicode="&#x96a;" horiz-adv-x="551" 
d="M428 127q0 -55 -40.5 -92t-110.5 -37q-43 0 -78.5 16.5t-57 46.5t-21.5 70q0 27 7.5 52t29.5 57.5t68 79.5q-54 54 -86.5 92.5t-49 67.5t-22 52.5t-5.5 46.5q0 12 2 25.5t5 27.5l85 -15q-7 -20 -7 -38q0 -23 8.5 -49t36 -63t83.5 -92q55 56 83 93.5t38 62.5t10 45
q0 19 -7 41l84 15q7 -28 7 -53q0 -26 -6.5 -50t-23.5 -52t-49.5 -65.5t-83.5 -89.5q47 -49 68.5 -83.5t27 -61t5.5 -50.5zM200 138q0 -27 17 -48t57 -21q34 0 54 19t20 48q0 15 -5 32t-20.5 40.5t-48.5 57.5q-32 -33 -48 -56.5t-21 -40.5t-5 -31z" />
    <glyph glyph-name="fivedeva" unicode="&#x96b;" horiz-adv-x="551" 
d="M477 -67q-17 29 -36 66.5l-37 76.5l-33 74t-23 58q-16 -1 -36 -1q-43 0 -84 10.5t-73.5 35.5t-51.5 68t-19 107q0 46 14 100.5t45 103.5l84 -21q-29 -49 -46 -95.5t-17 -98.5q0 -71 35 -106t109 -35q9 0 18 1q-6 23 -6 36q0 33 21 48.5t50 15.5q40 0 62 -24.5t22 -54.5
q0 -31 -15.5 -49.5t-41.5 -27.5q12 -31 34.5 -78t48 -95t48.5 -83z" />
    <glyph glyph-name="sixdeva" unicode="&#x96c;" horiz-adv-x="551" 
d="M470 -67q-16 27 -33 59.5t-31.5 63t-21.5 50.5q-12 -1 -24.5 -1.5t-24.5 -0.5q-67 0 -112 23t-68 61t-23 84q0 27 11.5 54t36.5 47q-36 21 -56.5 52.5t-20.5 75.5q0 64 52.5 97.5t132.5 33.5q26 0 57.5 -3t45.5 -7l-6 -70q-18 4 -40.5 7.5t-52.5 3.5q-108 0 -108 -71
q0 -31 19.5 -49.5t50.5 -28.5q35 9 79 9q13 0 27.5 -1.5l23.5 -2.5l-7 -69q-10 1 -23.5 1.5t-29.5 0.5q-50 0 -81 -21t-31 -65q0 -46 35 -69t85 -23h12.5t12.5 1q-3 10 -4 19.5t-1 15.5q0 34 20 49t46 15q43 0 65.5 -24.5t22.5 -53.5q0 -30 -15.5 -48.5t-39.5 -27.5
q14 -33 39 -75.5t52 -79.5z" />
    <glyph glyph-name="sevendeva" unicode="&#x96d;" horiz-adv-x="551" 
d="M512 270q0 -117 -50 -169t-128 -52q-61 0 -109.5 25t-85 84.5t-62 160.5t-39.5 254l80 15q12 -148 36.5 -252t67 -158.5t108.5 -54.5q61 0 81.5 40.5t20.5 111.5q0 51 -12.5 95t-37 71t-60.5 27q-25 0 -39 -14t-14 -36q0 -18 11 -34.5t39.5 -27.5t81.5 -14l-17 -70
q-99 8 -145 49t-46 99q0 53 34.5 86t94.5 33q58 0 100.5 -35t66 -96t23.5 -138z" />
    <glyph glyph-name="eightdeva" unicode="&#x96e;" horiz-adv-x="551" 
d="M273 0q-51 0 -97 18t-75 56t-29 97q0 31 9.5 62t33 68t65.5 87l202 244l62 -53l-211 -255q-46 -56 -62.5 -89t-16.5 -67q0 -51 33 -72.5t81 -21.5q51 0 98 17t99 51l36 -74q-46 -27 -102 -47.5t-126 -20.5z" />
    <glyph glyph-name="ninedeva" unicode="&#x96f;" horiz-adv-x="551" 
d="M71 470q0 45 20.5 81.5t58.5 58.5t90 22q76 0 121.5 -47t45.5 -120q0 -65 -35.5 -106.5t-100.5 -51.5l22.5 -15t23.5 -18l143 -116q36 -29 51.5 -59t15.5 -65q0 -32 -12.5 -58t-34.5 -55l-64 49q14 15 21 30t7 34q0 20 -8.5 35t-31.5 34l-238 197q-56 46 -75.5 86
t-19.5 84zM151 464q0 -42 24 -67.5t62 -25.5q41 0 65 27t24 69q0 41 -23.5 67.5t-62.5 26.5t-64 -26.5t-25 -70.5z" />
    <glyph glyph-name="abbreviationsigndeva" unicode="&#x970;" horiz-adv-x="426" 
d="M213 279q-41 0 -75 18t-54 49.5t-20 72.5q0 37 18.5 69t52 51t78.5 19q43 0 76 -18.5t52.5 -50t19.5 -70.5t-19.5 -71t-52.5 -50.5t-76 -18.5zM213 345q35 0 56.5 20.5t21.5 53.5q0 31 -21.5 52t-56.5 21q-37 0 -58 -21.5t-21 -51.5q0 -33 22.5 -53.5t56.5 -20.5z" />
    <glyph glyph-name="uni0971" unicode="&#x971;" horiz-adv-x="317" 
d="M105 590q0 26 17 43.5t42 17.5q24 0 41 -17.5t17 -43.5t-17 -44t-41 -18q-25 0 -42 18t-17 44z" />
    <glyph glyph-name="acandradeva" unicode="&#x972;" horiz-adv-x="764" 
d="M470 218q0 -70 -45.5 -104t-112.5 -34q-86 0 -153 64t-130 212l71 26q43 -106 93 -167.5t112 -61.5q37 0 61.5 17.5t24.5 56.5q0 37 -20.5 66t-52.5 54q-27 -5 -58 -6l-5 70q68 2 96.5 23.5t28.5 59.5q0 36 -23.5 52t-54.5 16q-38 0 -67.5 -10t-63.5 -27l-25 69
q26 14 64 26t88 12q78 0 119.5 -39t41.5 -98q0 -78 -67 -120q11 -10 20 -20q38 -5 74 -5q32 0 57 3t51 10v188h-73v71h258v-71h-104v-551h-81v290q-24 -6 -47 -8.5t-49 -2.5q-17 0 -43 3q15 -30 15 -64zM811 863q-23 -101 -77 -142t-130 -41q-72 0 -126 44t-88 139l71 24
q26 -71 59.5 -104.5t86.5 -33.5q57 0 84 36.5t44 103.5z" />
    <glyph glyph-name="oedeva" unicode="&#x973;" horiz-adv-x="764" 
d="M470 218q0 -70 -45.5 -104t-112.5 -34q-86 0 -153 64t-130 212l71 26q43 -106 93 -167.5t112 -61.5q37 0 61.5 17.5t24.5 56.5q0 37 -20.5 66t-52.5 54q-27 -5 -58 -6l-5 70q68 2 96.5 23.5t28.5 59.5q0 36 -23.5 52t-54.5 16q-38 0 -67.5 -10t-63.5 -27l-25 69
q26 14 64 26t88 12q78 0 119.5 -39t41.5 -98q0 -78 -67 -120q11 -10 20 -20q38 -5 74 -5q32 0 57 3t51 10v188h-73v71h258v-71h-104v-551h-81v290q-24 -6 -47 -8.5t-49 -2.5q-17 0 -43 3q15 -30 15 -64zM594 615v190h81v-190h-81z" />
    <glyph glyph-name="ooedeva" unicode="&#x974;" horiz-adv-x="1023" 
d="M470 218q0 -70 -45.5 -104t-112.5 -34q-86 0 -153 64t-130 212l71 26q43 -106 93 -167.5t112 -61.5q37 0 61.5 17.5t24.5 56.5q0 37 -20.5 66t-52.5 54q-27 -5 -58 -6l-5 70q68 2 96.5 23.5t28.5 59.5q0 36 -23.5 52t-54.5 16q-38 0 -67.5 -10t-63.5 -27l-25 69
q26 14 64 26t88 12q78 0 119.5 -39t41.5 -98q0 -78 -67 -120q11 -10 20 -20q38 -5 74 -5q32 0 57 3t51 10v188h-73v71h517v-71h-104v-551h-81v551h-178v-551h-81v290q-24 -6 -47 -8.5t-49 -2.5q-17 0 -43 3q15 -30 15 -64zM853 615v190h81v-190h-81z" />
    <glyph glyph-name="awdeva" unicode="&#x975;" horiz-adv-x="1023" 
d="M470 218q0 -70 -45.5 -104t-112.5 -34q-86 0 -153 64t-130 212l71 26q43 -106 93 -167.5t112 -61.5q37 0 61.5 17.5t24.5 56.5q0 37 -20.5 66t-52.5 54q-27 -5 -58 -6l-5 70q68 2 96.5 23.5t28.5 59.5q0 36 -23.5 52t-54.5 16q-38 0 -67.5 -10t-63.5 -27l-25 69
q26 14 64 26t88 12q78 0 119.5 -39t41.5 -98q0 -78 -67 -120q11 -10 20 -20q38 -5 74 -5q32 0 57 3t51 10v188h-73v71h517v-71h-104v-551h-81v551h-178v-551h-81v290q-24 -6 -47 -8.5t-49 -2.5q-17 0 -43 3q15 -30 15 -64zM833 615q-16 45 -37.5 58t-43.5 13
q-12 0 -27.5 -1.5t-33.5 -1.5q-32 0 -58.5 7.5t-50.5 32.5t-46 78l66 24q19 -48 39.5 -61.5t56.5 -13.5q13 0 29 1.5t33 1.5q31 0 55.5 -10t43 -38t30.5 -81q13 32 13 62q0 29 -13.5 44.5t-45.5 25.5l-14 5q-56 18 -78.5 43.5t-22.5 78.5v12l70 1q-1 -3 -1 -14
q0 -20 8.5 -33t44.5 -25l29 -11q40 -13 65 -36t25 -74q0 -22 -7 -46.5t-15 -41.5h-114z" />
    <glyph glyph-name="uedeva" unicode="&#x976;" horiz-adv-x="764" 
d="M470 218q0 -70 -45.5 -104t-112.5 -34q-86 0 -153 64t-130 212l71 26q43 -106 93 -167.5t112 -61.5q37 0 61.5 17.5t24.5 56.5q0 37 -20.5 66t-52.5 54q-27 -5 -58 -6l-5 70q68 2 96.5 23.5t28.5 59.5q0 36 -23.5 52t-54.5 16q-38 0 -67.5 -10t-63.5 -27l-25 69
q26 14 64 26t88 12q78 0 119.5 -39t41.5 -98q0 -78 -67 -120q11 -10 20 -20q38 -5 74 -5q32 0 57 3t51 10v188h-73v71h258v-71h-104v-551h-81v290q-24 -6 -47 -8.5t-49 -2.5q-17 0 -43 3q15 -30 15 -64zM459 -182q-65 0 -115 19.5t-81 44.5l23 66q34 -26 73 -42.5t100 -16.5
t99 16.5t73 42.5l24 -66q-31 -25 -81 -44.5t-115 -19.5z" />
    <glyph glyph-name="uuedeva" unicode="&#x977;" horiz-adv-x="764" 
d="M470 218q0 -70 -45.5 -104t-112.5 -34q-86 0 -153 64t-130 212l71 26q43 -106 93 -167.5t112 -61.5q37 0 61.5 17.5t24.5 56.5q0 37 -20.5 66t-52.5 54q-27 -5 -58 -6l-5 70q68 2 96.5 23.5t28.5 59.5q0 36 -23.5 52t-54.5 16q-38 0 -67.5 -10t-63.5 -27l-25 69
q26 14 64 26t88 12q78 0 119.5 -39t41.5 -98q0 -78 -67 -120q11 -10 20 -20q38 -5 74 -5q32 0 57 3t51 10v188h-73v71h258v-71h-104v-551h-81v290q-24 -6 -47 -8.5t-49 -2.5q-17 0 -43 3q15 -30 15 -64zM459 -150q-65 0 -114.5 19t-81.5 45l23 66q34 -26 73 -42.5t100 -16.5
t99 16.5t73 42.5l24 -66q-31 -26 -82.5 -45t-113.5 -19zM459 -268q-65 0 -113 16t-83 36l23 66q44 -26 83.5 -36t89.5 -10t89.5 10t82.5 36l24 -66q-35 -20 -83 -36t-113 -16z" />
    <glyph glyph-name="marwariddadeva" unicode="&#x978;" horiz-adv-x="555" 
d="M208 551v-130q42 6 83 6q116 0 167 -51.5t51 -140.5q0 -48 -15.5 -101t-49.5 -105l-72 41q25 33 40.5 76.5t15.5 87.5q0 38 -11.5 65.5t-41 42.5t-82.5 15q-44 0 -85 -8v-83q0 -25 -13 -39.5t-35 -14.5q-20 0 -40.5 12t-38.5 31t-29 40t-11 38q0 28 18 44.5t68 29.5v144
h-127v71h569v-71h-361z" />
    <glyph glyph-name="zhadeva" unicode="&#x979;" horiz-adv-x="742" 
d="M653 551v-551h-81v394h-137q-39 0 -55 2q35 -28 56.5 -65t21.5 -78q0 -44 -20.5 -73t-54 -43t-73.5 -14q-53 0 -101 29t-92 95t-86 178l71 25q46 -125 96 -189t108 -64q32 0 52.5 15t20.5 52q0 40 -30.5 75.5t-75.5 61.5l29 64h270v86h-572v71h757v-71h-104zM349 55
q0 21 14.5 36.5t34.5 15.5q21 0 35.5 -15.5t14.5 -36.5q0 -22 -14.5 -37.5t-35.5 -15.5q-20 0 -34.5 15.5t-14.5 37.5zM163 55q0 21 15 36.5t35 15.5t35 -15.5t15 -36.5q0 -22 -15 -37.5t-35 -15.5t-35 15.5t-15 37.5zM256 -35q0 22 14.5 37t35.5 15q20 0 34.5 -15t14.5 -37
t-14.5 -37t-34.5 -15q-21 0 -35.5 15t-14.5 37z" />
    <glyph glyph-name="heavyyadeva" unicode="&#x97a;" horiz-adv-x="580" 
d="M491 551v-551h-81v179q-28 -18 -67 -32.5t-90 -14.5q-90 0 -145.5 60.5t-69.5 160.5q62 13 92 36.5t30 67.5q0 28 -11.5 52t-25.5 42h-123v71h595v-71h-104zM410 551h-199q10 -22 16 -42l183 -232v274zM273 346l-21.5 27.5l-22.5 29.5q-7 -36 -31.5 -62t-68.5 -40
q20 -49 50.5 -73.5t79.5 -24.5q34 0 60 8.5t47 21.5z" />
    <glyph glyph-name="gabardeva" unicode="&#x97b;" horiz-adv-x="563" 
d="M82 71h312v480h-186v-298q0 -25 -13 -40t-35 -15q-26 0 -53.5 20.5t-46.5 50.5t-19 58q0 23 13.5 37t47.5 14h26v173h-128v71h578v-71h-104v-551h-392v71z" />
    <glyph glyph-name="jabardeva" unicode="&#x97c;" horiz-adv-x="723" 
d="M82 71h471v323h-118q-39 0 -55 2q35 -28 56.5 -65t21.5 -78q0 -44 -20.5 -73t-54 -43t-73.5 -14q-53 0 -101 29t-92 95t-86 178l71 25q46 -125 96 -189t108 -64q32 0 52.5 15t20.5 52q0 40 -30.5 75.5t-75.5 61.5l29 64h251v86h-553v71h737v-71h-104v-551h-551v71z" />
    <glyph glyph-name="uni097D" unicode="&#x97d;" horiz-adv-x="469" 
d="M222 632q95 0 148 -50.5t53 -132.5q0 -73 -44.5 -122t-118.5 -65v-262h-80v327q82 1 120.5 36.5t38.5 90.5q0 53 -35.5 80t-80.5 27q-44 0 -74 -9.5t-61 -23.5l-25 70q31 13 72.5 23.5t86.5 10.5z" />
    <glyph glyph-name="ddabardeva" unicode="&#x97e;" horiz-adv-x="577" 
d="M358 266q-29 0 -61 -6t-55 -16q-45 25 -75 59t-30 78q0 47 35 71q22 15 50 22t79 7h100v70h-401v71h592v-71h-110v-141h-196q-33 0 -51 -7t-18 -29q0 -17 11 -30t26 -22q22 7 50.5 11t54.5 4q84 0 129.5 -32.5t45.5 -89.5q0 -58 -48.5 -95.5t-148.5 -37.5q-96 0 -176 37
t-139 101l59 51q55 -58 116 -87.5t140 -29.5q62 0 89 15t27 45q0 24 -22 38t-73 14zM62 71h469v-71h-469v71z" />
    <glyph glyph-name="babardeva" unicode="&#x97f;" horiz-adv-x="571" 
d="M82 71h319v114q-27 -18 -65.5 -33t-94.5 -15q-57 0 -101 21t-69 59t-25 89q0 86 60.5 131.5t158.5 45.5q13 0 33.5 -1.5t40 -3.5t30.5 -5l-6 -69q-20 4 -45 7.5t-50 3.5q-18 0 -34 -2l127 -171q11 8 21 16.5t19 17.5v275h-401v71h585v-71h-104v-551h-399v71zM127 306
q0 -52 33.5 -77t81.5 -25q32 0 61 9l-131 179q-45 -29 -45 -86z" />
    <glyph glyph-name="uni200C" unicode="&#x200c;" 
d="M-26 788h52v-954h-52v954z" />
    <glyph glyph-name="uni200D" unicode="&#x200d;" 
d="M146 539l-37 -36l-83 82v-750h-52v750l-83 -82l-37 36l110 107l-110 106l37 36l109 -108l109 108l37 -37l-110 -105z" />
    <glyph glyph-name="uni25CC" unicode="&#x25cc;" horiz-adv-x="510" 
d="M254 457q-28 0 -28 29q0 28 28 28q30 0 30 -28q0 -29 -30 -29zM384 407q-29 0 -29 29t29 29t29 -29t-29 -29zM125 407q-28 0 -28 29t28 29q29 0 29 -29t-29 -29zM81 283q-29 0 -29 29q0 28 29 28q28 0 28 -28q0 -29 -28 -29zM429 283q-29 0 -29 29q0 28 29 28t29 -28
q0 -29 -29 -29zM125 158q-28 0 -28 29t28 29q29 0 29 -29t-29 -29zM384 158q-29 0 -29 29t29 29t29 -29t-29 -29zM254 108q-28 0 -28 29t28 29q30 0 30 -29t-30 -29z" />
    <glyph glyph-name="uni02BC" unicode="&#x2bc;" horiz-adv-x="312" 
d="M227 729l7 -11q-14 -53 -37.5 -116t-48.5 -118h-67l27 126.5t22 118.5h97z" />
    <glyph glyph-name="ashortnuktadeva" horiz-adv-x="764" 
d="M470 218q0 -70 -45.5 -104t-112.5 -34q-86 0 -153 64t-130 212l71 26q43 -106 93 -167.5t112 -61.5q37 0 61.5 17.5t24.5 56.5q0 37 -20.5 66t-52.5 54q-27 -5 -58 -6l-5 70q68 2 96.5 23.5t28.5 59.5q0 36 -23.5 52t-54.5 16q-38 0 -67.5 -10t-63.5 -27l-25 69
q26 14 64 26t88 12q78 0 119.5 -39t41.5 -98q0 -78 -67 -120q11 -10 20 -20q38 -5 74 -5q32 0 57 3t51 10v188h-73v71h258v-71h-104v-551h-81v290q-24 -6 -47 -8.5t-49 -2.5q-17 0 -43 3q15 -30 15 -64zM594 615q-16 72 -36 98t-58 26q-14 0 -26.5 -1t-25.5 -1
q-35 0 -63.5 11t-52.5 40.5t-43 84.5l66 23q17 -44 35.5 -66t61.5 -22q14 0 30 2t34 2q37 0 65 -17t49.5 -60t39.5 -120h-76zM224 -39q0 24 16 41t39 17t39 -17t16 -41q0 -25 -16 -41.5t-39 -16.5t-39 16.5t-16 41.5z" />
    <glyph glyph-name="anuktadeva" horiz-adv-x="764" 
d="M470 218q0 -70 -45.5 -104t-112.5 -34q-86 0 -153 64t-130 212l71 26q43 -106 93 -167.5t112 -61.5q37 0 61.5 17.5t24.5 56.5q0 37 -20.5 66t-52.5 54q-27 -5 -58 -6l-5 70q68 2 96.5 23.5t28.5 59.5q0 36 -23.5 52t-54.5 16q-38 0 -67.5 -10t-63.5 -27l-25 69
q26 14 64 26t88 12q78 0 119.5 -39t41.5 -98q0 -78 -67 -120q11 -10 20 -20q38 -5 74 -5q32 0 57 3t51 10v188h-73v71h258v-71h-104v-551h-81v290q-24 -6 -47 -8.5t-49 -2.5q-17 0 -43 3q15 -30 15 -64zM224 -39q0 24 16 41t39 17t39 -17t16 -41q0 -25 -16 -41.5t-39 -16.5
t-39 16.5t-16 41.5z" />
    <glyph glyph-name="aanuktadeva" horiz-adv-x="1023" 
d="M470 218q0 -70 -45.5 -104t-112.5 -34q-86 0 -153 64t-130 212l71 26q43 -106 93 -167.5t112 -61.5q37 0 61.5 17.5t24.5 56.5q0 37 -20.5 66t-52.5 54q-27 -5 -58 -6l-5 70q68 2 96.5 23.5t28.5 59.5q0 36 -23.5 52t-54.5 16q-38 0 -67.5 -10t-63.5 -27l-25 69
q26 14 64 26t88 12q78 0 119.5 -39t41.5 -98q0 -78 -67 -120q11 -10 20 -20q38 -5 74 -5q32 0 57 3t51 10v188h-73v71h517v-71h-104v-551h-81v551h-178v-551h-81v290q-24 -6 -47 -8.5t-49 -2.5q-17 0 -43 3q15 -30 15 -64zM224 -39q0 24 16 41t39 17t39 -17t16 -41
q0 -25 -16 -41.5t-39 -16.5t-39 16.5t-16 41.5z" />
    <glyph glyph-name="inuktadeva" horiz-adv-x="491" 
d="M271 222q-29 0 -58 -7t-52 -18q-47 28 -79 66t-32 89q0 28 10 48t27 33q23 17 54 24.5t80 7.5h93v86h-314v71h505v-71h-110v-157h-184q-31 0 -44 -3t-22 -10q-15 -12 -15 -34q0 -24 14 -40.5t30 -29.5q46 17 101 17q74 0 123 -38t49 -102q0 -65 -41.5 -102.5
t-116.5 -47.5q29 -12 60.5 -23t65.5 -21l-33 -70q-57 26 -109 54.5t-97 56.5q-59 3 -93.5 17.5t-34.5 46.5q0 22 13.5 36.5t39.5 14.5q20 0 41.5 -10.5t51.5 -35.5q14 -2 25 -2q70 0 108.5 20.5t38.5 64.5q0 33 -24.5 51t-70.5 18zM139 -144q0 24 16 41t39 17t39 -17t16 -41
q0 -25 -16 -41.5t-39 -16.5t-39 16.5t-16 41.5z" />
    <glyph glyph-name="iinuktadeva" horiz-adv-x="491" 
d="M271 222q-29 0 -58 -7t-52 -18q-47 28 -79 66t-32 89q0 28 10 48t27 33q23 17 54 24.5t80 7.5h93v86h-314v71h505v-71h-110v-157h-184q-31 0 -44 -3t-22 -10q-15 -12 -15 -34q0 -24 14 -40.5t30 -29.5q46 17 101 17q74 0 123 -38t49 -102q0 -65 -41.5 -102.5
t-116.5 -47.5q29 -12 60.5 -23t65.5 -21l-33 -70q-57 26 -109 54.5t-97 56.5q-59 3 -93.5 17.5t-34.5 46.5q0 22 13.5 36.5t39.5 14.5q20 0 41.5 -10.5t51.5 -35.5q14 -2 25 -2q70 0 108.5 20.5t38.5 64.5q0 33 -24.5 51t-70.5 18zM293 615q-21 35 -35.5 73t-14.5 74
q0 67 44.5 100.5t110.5 33.5q32 0 59 -7t47 -17l-22 -66q-17 9 -36 15t-41 6q-40 0 -61 -22.5t-21 -57.5q0 -33 13.5 -64.5t38.5 -67.5h-82zM139 -144q0 24 16 41t39 17t39 -17t16 -41q0 -25 -16 -41.5t-39 -16.5t-39 16.5t-16 41.5z" />
    <glyph glyph-name="unuktadeva" horiz-adv-x="548" 
d="M0 622h563v-71h-110q32 -39 32 -87q0 -90 -79 -136q36 -32 64.5 -74.5t28.5 -101.5q0 -50 -22.5 -84t-61.5 -51t-87 -17q-57 0 -108.5 30.5t-99 99t-91.5 183.5l71 25q28 -78 61.5 -137.5t73 -93t85.5 -33.5q41 0 67.5 18.5t26.5 67.5q0 41 -22.5 75.5t-62.5 65.5
q-30 -6 -65 -7l-5 70q73 2 109 26t36 73q0 30 -15 52.5t-38 35.5h-351v71zM222 -134q0 24 16 41t39 17t39 -17t16 -41q0 -25 -16 -41.5t-39 -16.5t-39 16.5t-16 41.5z" />
    <glyph glyph-name="uunuktadeva" horiz-adv-x="765" 
d="M0 622h780v-71h-327q32 -39 32 -87q0 -90 -79 -136q11 -9 21 -19t19 -21q31 22 62 33.5t65 11.5q65 0 106.5 -39.5t41.5 -108.5q0 -46 -15.5 -92.5t-49.5 -92.5l-72 41q25 29 41 64t16 76q0 43 -20.5 63t-55.5 20q-39 0 -81 -37q7 -16 11 -35t4 -40q0 -50 -22.5 -84
t-61.5 -51t-87 -17q-57 0 -108.5 30.5t-99 99t-91.5 183.5l71 25q28 -78 61.5 -137.5t73 -93t85.5 -33.5q41 0 67.5 18.5t26.5 67.5q0 41 -22.5 75.5t-62.5 65.5q-30 -6 -65 -7l-5 70q73 2 109 26t36 73q0 30 -15 52.5t-38 35.5h-351v71zM222 -134q0 24 16 41t39 17t39 -17
t16 -41q0 -25 -16 -41.5t-39 -16.5t-39 16.5t-16 41.5z" />
    <glyph glyph-name="rvocalicnuktadeva" horiz-adv-x="853" 
d="M127 65l-47 67l246 149q-42 54 -72.5 76.5t-72.5 22.5q-29 0 -57 -8t-69 -29l-28 74q34 16 71 27.5t81 11.5q40 0 72 -12.5t63 -41t68 -76.5v225h-382v71h867v-71h-405v-222q34 2 67.5 6.5t54.5 10.5q-10 20 -10 41q0 32 21 47.5t46 15.5q38 0 60.5 -22t22.5 -55
q0 -28 -14 -45t-34 -25l27.5 -45.5l26.5 -40.5l-11 -33q-53 -8 -75.5 -28.5t-22.5 -53.5q0 -34 24.5 -49.5t55.5 -15.5t55 7.5t58 25.5l26 -70q-26 -13 -59 -23.5t-74 -10.5q-76 0 -118 39.5t-42 101.5q0 40 23.5 74.5t69.5 52.5l-15.5 28.5t-11.5 23.5q-16 -6 -42.5 -11.5
t-55.5 -9.5t-53 -5v-260h-80v234zM175 -69q0 24 16 41t39 17t39 -17t16 -41q0 -25 -16 -41.5t-39 -16.5t-39 16.5t-16 41.5z" />
    <glyph glyph-name="lvocalicnuktadeva" horiz-adv-x="699" 
d="M422 30q0 48 30.5 84.5t97.5 55.5q11 21 18 45t7 53q0 45 -22 66.5t-57 21.5q-25 0 -50.5 -12t-48.5 -44t-41 -92l-77 24q12 46 32 81q-23 18 -47.5 29t-54.5 11q-41 0 -62 -23t-21 -59q0 -38 21.5 -72.5t62 -72.5t99.5 -86l-54 -52q-59 50 -106.5 95.5t-75.5 92
t-28 99.5t24.5 86.5t61 49t73.5 15.5q44 0 80.5 -14.5t69.5 -42.5q48 45 116 55v127h-470v71h714v-71h-164v-132q40 -12 73 -49t33 -106q0 -41 -12 -79.5t-29 -70.5q-61 -10 -90 -32t-29 -58q0 -34 25 -49.5t56 -15.5t55 8t58 25l25 -69q-25 -13 -59 -23.5t-74 -10.5
q-75 0 -117.5 39t-42.5 102zM175 -132q0 24 16 41t39 17t39 -17t16 -41q0 -25 -16 -41.5t-39 -16.5t-39 16.5t-16 41.5z" />
    <glyph glyph-name="ecandranuktadeva" horiz-adv-x="553" 
d="M568 551h-94v-171q0 -51 -7.5 -81.5t-25.5 -52.5q-37 -48 -118 -54l-16 74q22 4 37.5 9.5t25.5 16.5q12 12 17.5 29.5t5.5 58.5v171h-233v-198q0 -46 3 -75t13 -48t30 -34.5t54 -35.5l110 -62q63 -36 89.5 -68.5t26.5 -82.5q0 -41 -16.5 -76t-30.5 -55l-72 42
q13 20 24.5 42t11.5 45q0 19 -8 33.5t-32.5 32t-72.5 45.5l-87 50q-39 22 -66.5 47t-41.5 59q-16 36 -16 104v235h-79v71h568v-71zM534 863q-23 -101 -77 -142t-130 -41q-72 0 -126 44t-88 139l71 24q26 -71 59.5 -104.5t86.5 -33.5q57 0 84 36.5t44 103.5zM115 -70
q0 24 16 41t39 17t39 -17t16 -41q0 -25 -16 -41.5t-39 -16.5t-39 16.5t-16 41.5z" />
    <glyph glyph-name="eshortnuktadeva" horiz-adv-x="553" 
d="M568 551h-94v-171q0 -51 -7.5 -81.5t-25.5 -52.5q-37 -48 -118 -54l-16 74q22 4 37.5 9.5t25.5 16.5q12 12 17.5 29.5t5.5 58.5v171h-233v-198q0 -46 3 -75t13 -48t30 -34.5t54 -35.5l110 -62q63 -36 89.5 -68.5t26.5 -82.5q0 -41 -16.5 -76t-30.5 -55l-72 42
q13 20 24.5 42t11.5 45q0 19 -8 33.5t-32.5 32t-72.5 45.5l-87 50q-39 22 -66.5 47t-41.5 59q-16 36 -16 104v235h-79v71h568v-71zM393 615q-16 72 -36 98t-58 26q-14 0 -26.5 -1t-25.5 -1q-35 0 -63.5 11t-52.5 40.5t-43 84.5l66 23q17 -44 35.5 -66t61.5 -22q14 0 30 2
t34 2q37 0 65 -17t49.5 -60t39.5 -120h-76zM115 -70q0 24 16 41t39 17t39 -17t16 -41q0 -25 -16 -41.5t-39 -16.5t-39 16.5t-16 41.5z" />
    <glyph glyph-name="enuktadeva" horiz-adv-x="553" 
d="M568 551h-94v-171q0 -51 -7.5 -81.5t-25.5 -52.5q-37 -48 -118 -54l-16 74q22 4 37.5 9.5t25.5 16.5q12 12 17.5 29.5t5.5 58.5v171h-233v-198q0 -46 3 -75t13 -48t30 -34.5t54 -35.5l110 -62q63 -36 89.5 -68.5t26.5 -82.5q0 -41 -16.5 -76t-30.5 -55l-72 42
q13 20 24.5 42t11.5 45q0 19 -8 33.5t-32.5 32t-72.5 45.5l-87 50q-39 22 -66.5 47t-41.5 59q-16 36 -16 104v235h-79v71h568v-71zM115 -70q0 24 16 41t39 17t39 -17t16 -41q0 -25 -16 -41.5t-39 -16.5t-39 16.5t-16 41.5z" />
    <glyph glyph-name="ainuktadeva" horiz-adv-x="553" 
d="M568 551h-94v-171q0 -51 -7.5 -81.5t-25.5 -52.5q-37 -48 -118 -54l-16 74q22 4 37.5 9.5t25.5 16.5q12 12 17.5 29.5t5.5 58.5v171h-233v-198q0 -46 3 -75t13 -48t30 -34.5t54 -35.5l110 -62q63 -36 89.5 -68.5t26.5 -82.5q0 -41 -16.5 -76t-30.5 -55l-72 42
q13 20 24.5 42t11.5 45q0 19 -8 33.5t-32.5 32t-72.5 45.5l-87 50q-39 22 -66.5 47t-41.5 59q-16 36 -16 104v235h-79v71h568v-71zM394 615q-21 79 -41.5 124.5t-45.5 64.5t-59 19q-23 0 -39.5 -4.5t-30.5 -9.5l-24 73q39 14 91 14q54 0 93.5 -25.5t71 -87t59.5 -168.5h-75z
M115 -70q0 24 16 41t39 17t39 -17t16 -41q0 -25 -16 -41.5t-39 -16.5t-39 16.5t-16 41.5z" />
    <glyph glyph-name="ocandranuktadeva" horiz-adv-x="1023" 
d="M470 218q0 -70 -45.5 -104t-112.5 -34q-86 0 -153 64t-130 212l71 26q43 -106 93 -167.5t112 -61.5q37 0 61.5 17.5t24.5 56.5q0 37 -20.5 66t-52.5 54q-27 -5 -58 -6l-5 70q68 2 96.5 23.5t28.5 59.5q0 36 -23.5 52t-54.5 16q-38 0 -67.5 -10t-63.5 -27l-25 69
q26 14 64 26t88 12q78 0 119.5 -39t41.5 -98q0 -78 -67 -120q11 -10 20 -20q38 -5 74 -5q32 0 57 3t51 10v188h-73v71h517v-71h-104v-551h-81v551h-178v-551h-81v290q-24 -6 -47 -8.5t-49 -2.5q-17 0 -43 3q15 -30 15 -64zM224 -39q0 24 16 41t39 17t39 -17t16 -41
q0 -25 -16 -41.5t-39 -16.5t-39 16.5t-16 41.5zM1063 863q-23 -101 -77 -142t-130 -41q-72 0 -126 44t-88 139l71 24q26 -71 59.5 -104.5t86.5 -33.5q57 0 84 36.5t44 103.5z" />
    <glyph glyph-name="oshortnuktadeva" horiz-adv-x="1023" 
d="M470 218q0 -70 -45.5 -104t-112.5 -34q-86 0 -153 64t-130 212l71 26q43 -106 93 -167.5t112 -61.5q37 0 61.5 17.5t24.5 56.5q0 37 -20.5 66t-52.5 54q-27 -5 -58 -6l-5 70q68 2 96.5 23.5t28.5 59.5q0 36 -23.5 52t-54.5 16q-38 0 -67.5 -10t-63.5 -27l-25 69
q26 14 64 26t88 12q78 0 119.5 -39t41.5 -98q0 -78 -67 -120q11 -10 20 -20q38 -5 74 -5q32 0 57 3t51 10v188h-73v71h517v-71h-104v-551h-81v551h-178v-551h-81v290q-24 -6 -47 -8.5t-49 -2.5q-17 0 -43 3q15 -30 15 -64zM853 615q-16 72 -36 98t-58 26q-14 0 -26.5 -1
t-25.5 -1q-35 0 -63.5 11t-52.5 40.5t-43 84.5l66 23q17 -44 35.5 -66t61.5 -22q14 0 30 2t34 2q37 0 65 -17t49.5 -60t39.5 -120h-76zM224 -39q0 24 16 41t39 17t39 -17t16 -41q0 -25 -16 -41.5t-39 -16.5t-39 16.5t-16 41.5z" />
    <glyph glyph-name="onuktadeva" horiz-adv-x="1023" 
d="M470 218q0 -70 -45.5 -104t-112.5 -34q-86 0 -153 64t-130 212l71 26q43 -106 93 -167.5t112 -61.5q37 0 61.5 17.5t24.5 56.5q0 37 -20.5 66t-52.5 54q-27 -5 -58 -6l-5 70q68 2 96.5 23.5t28.5 59.5q0 36 -23.5 52t-54.5 16q-38 0 -67.5 -10t-63.5 -27l-25 69
q26 14 64 26t88 12q78 0 119.5 -39t41.5 -98q0 -78 -67 -120q11 -10 20 -20q38 -5 74 -5q32 0 57 3t51 10v188h-73v71h517v-71h-104v-551h-81v551h-178v-551h-81v290q-24 -6 -47 -8.5t-49 -2.5q-17 0 -43 3q15 -30 15 -64zM854 615q-21 79 -41.5 124.5t-45.5 64.5t-59 19
q-23 0 -39.5 -4.5t-30.5 -9.5l-24 73q39 14 91 14q54 0 93.5 -25.5t71 -87t59.5 -168.5h-75zM224 -39q0 24 16 41t39 17t39 -17t16 -41q0 -25 -16 -41.5t-39 -16.5t-39 16.5t-16 41.5z" />
    <glyph glyph-name="aunuktadeva" horiz-adv-x="1023" 
d="M470 218q0 -70 -45.5 -104t-112.5 -34q-86 0 -153 64t-130 212l71 26q43 -106 93 -167.5t112 -61.5q37 0 61.5 17.5t24.5 56.5q0 37 -20.5 66t-52.5 54q-27 -5 -58 -6l-5 70q68 2 96.5 23.5t28.5 59.5q0 36 -23.5 52t-54.5 16q-38 0 -67.5 -10t-63.5 -27l-25 69
q26 14 64 26t88 12q78 0 119.5 -39t41.5 -98q0 -78 -67 -120q11 -10 20 -20q38 -5 74 -5q32 0 57 3t51 10v188h-73v71h517v-71h-104v-551h-81v551h-178v-551h-81v290q-24 -6 -47 -8.5t-49 -2.5q-17 0 -43 3q15 -30 15 -64zM844 615q-27 39 -49.5 58t-44 24.5t-47.5 5.5
q-20 0 -41 -6t-41 -15l-26 69q22 10 47.5 16t54.5 6q45 0 80 -21.5t59 -59.5l4 2q-21 52 -39.5 80.5t-41 40.5t-52.5 12q-24 0 -40 -4t-30 -10l-23 69q39 14 91 14q54 0 93.5 -25.5t71 -87t59.5 -168.5h-85zM224 -39q0 24 16 41t39 17t39 -17t16 -41q0 -25 -16 -41.5
t-39 -16.5t-39 16.5t-16 41.5z" />
    <glyph glyph-name="rrvocalicnuktadeva" horiz-adv-x="853" 
d="M127 65l-47 67l246 149q-42 54 -72.5 76.5t-72.5 22.5q-29 0 -57 -8t-69 -29l-28 74q34 16 71 27.5t81 11.5q40 0 72 -12.5t63 -41t68 -76.5v225h-382v71h867v-71h-405v-222q34 2 67.5 6.5t54.5 10.5q-10 20 -10 41q0 32 21 47.5t46 15.5q38 0 60.5 -22t22.5 -55
q0 -28 -14 -45t-34 -25l27.5 -45.5l26.5 -40.5l-11 -33q-55 -7 -76.5 -27t-21.5 -41q0 -28 22 -40.5t59 -12.5q32 0 55 6.5t58 20.5l25 -63q-26 -13 -59 -23.5t-74 -10.5q-18 0 -35 3q-12 -15 -12 -35q0 -28 22 -40.5t59 -12.5q31 0 55 6.5t58 21.5l25 -63
q-26 -13 -59.5 -24t-73.5 -11q-80 0 -120 37.5t-40 94.5q0 27 15 52q-54 37 -54 103q0 34 23 63t70 47l-15.5 27.5t-11.5 23.5q-16 -6 -42.5 -11.5t-55.5 -9.5t-53 -5v-260h-80v234zM175 -69q0 24 16 41t39 17t39 -17t16 -41q0 -25 -16 -41.5t-39 -16.5t-39 16.5t-16 41.5z
" />
    <glyph glyph-name="llvocalicnuktadeva" horiz-adv-x="699" 
d="M204 426q44 0 80.5 -14.5t69.5 -42.5q48 45 116 55v127h-470v71h714v-71h-164v-132q40 -12 73 -49t33 -106q0 -35 -7 -62.5t-15 -49.5q-54 -4 -83.5 -15t-40.5 -26t-11 -31q0 -28 22 -41t59 -13q32 0 55 7t58 21l25 -63q-26 -13 -59.5 -23.5t-74.5 -10.5q-18 0 -34 2
q-12 -14 -12 -34q0 -28 22 -40.5t59 -12.5q31 0 55 6.5t58 20.5l25 -63q-26 -13 -59.5 -23.5t-73.5 -10.5q-80 0 -120 37.5t-40 94.5q0 27 15 52q-54 37 -54 102q0 42 34.5 76t107.5 47q3 13 5.5 27t2.5 30q0 45 -22 66.5t-57 21.5q-25 0 -50.5 -12t-48.5 -44t-41 -92
l-77 24q12 46 32 81q-23 18 -47.5 29t-54.5 11q-41 0 -62 -23t-21 -59q0 -38 21.5 -72.5t62 -72.5t99.5 -86l-54 -52q-59 50 -106.5 95.5t-75.5 92t-28 99.5t24.5 86.5t61 49t73.5 15.5zM175 -132q0 24 16 41t39 17t39 -17t16 -41q0 -25 -16 -41.5t-39 -16.5t-39 16.5
t-16 41.5z" />
    <glyph glyph-name="acandranuktadeva" horiz-adv-x="764" 
d="M470 218q0 -70 -45.5 -104t-112.5 -34q-86 0 -153 64t-130 212l71 26q43 -106 93 -167.5t112 -61.5q37 0 61.5 17.5t24.5 56.5q0 37 -20.5 66t-52.5 54q-27 -5 -58 -6l-5 70q68 2 96.5 23.5t28.5 59.5q0 36 -23.5 52t-54.5 16q-38 0 -67.5 -10t-63.5 -27l-25 69
q26 14 64 26t88 12q78 0 119.5 -39t41.5 -98q0 -78 -67 -120q11 -10 20 -20q38 -5 74 -5q32 0 57 3t51 10v188h-73v71h258v-71h-104v-551h-81v290q-24 -6 -47 -8.5t-49 -2.5q-17 0 -43 3q15 -30 15 -64zM811 863q-23 -101 -77 -142t-130 -41q-72 0 -126 44t-88 139l71 24
q26 -71 59.5 -104.5t86.5 -33.5q57 0 84 36.5t44 103.5zM224 -39q0 24 16 41t39 17t39 -17t16 -41q0 -25 -16 -41.5t-39 -16.5t-39 16.5t-16 41.5z" />
    <glyph glyph-name="ghanuktadeva" horiz-adv-x="591" 
d="M605 551h-103v-551h-81v166q-31 -20 -69 -34t-93 -14q-77 0 -125 40t-48 108q0 28 10 54t32 46q-40 19 -63 54t-23 77q0 31 10 54h-52v71h605v-71zM167 269q0 -42 28 -61.5t72 -19.5q52 0 90.5 21.5t63.5 50.5v291h-276q-22 -24 -22 -57q0 -37 21.5 -57t55.5 -25
q28 7 63 7q27 0 45 -2l-6 -70q-7 1 -15 1h-14q-49 0 -77.5 -20t-28.5 -59zM111 12q0 24 16 41t39 17t39 -17t16 -41q0 -25 -16 -41.5t-39 -16.5t-39 16.5t-16 41.5z" />
    <glyph glyph-name="nganuktadeva" horiz-adv-x="647" 
d="M358 222q-29 0 -58 -7t-52 -18q-46 27 -78.5 65t-32.5 90q0 28 10 48t27 33q22 17 53 24.5t81 7.5h93v86h-401v71h662v-71h-180v-157h-184q-31 0 -44 -3t-22 -10q-15 -12 -15 -34q0 -24 13.5 -40.5t30.5 -29.5q46 17 101 17q74 0 123 -38t49 -102q0 -68 -49 -111
t-148 -43q-98 0 -175.5 44t-136.5 114l61 49q57 -68 116.5 -100.5t134.5 -32.5q116 0 116 78q0 34 -24.5 52t-70.5 18zM511 337q0 23 15 39t37 16t37 -16t15 -39t-15 -39t-37 -16t-37 16t-15 39zM257 -134q0 24 16 41t39 17t39 -17t16 -41q0 -25 -16 -41.5t-39 -16.5
t-39 16.5t-16 41.5z" />
    <glyph glyph-name="canuktadeva" horiz-adv-x="634" 
d="M649 551h-104v-551h-80v165q-26 -17 -62 -32t-86 -15q-77 0 -126.5 43t-49.5 114q0 29 12.5 54t31.5 42l-147 -2v72h293q18 0 35.5 -0.5t22.5 -0.5l-7 -70h-32q-58 0 -93.5 -24.5t-35.5 -71.5q0 -43 29 -64.5t67 -21.5q49 0 85 21.5t63 50.5v291h-465v71h649v-71zM141 12
q0 24 16 41t39 17t39 -17t16 -41q0 -25 -16 -41.5t-39 -16.5t-39 16.5t-16 41.5z" />
    <glyph glyph-name="chanuktadeva" horiz-adv-x="701" 
d="M296 70q76 0 139.5 31.5t101 85.5t37.5 123q0 46 -23 77.5t-64 31.5q-34 0 -48.5 -18t-14.5 -43q0 -32 26 -58t85 -39l-33 -63q-81 23 -118 64.5t-37 93.5q0 48 27.5 82t80.5 43v70h-455v71h715v-71h-180v-74q51 -13 84.5 -55t33.5 -114q0 -58 -25 -113t-71.5 -99
t-112.5 -70t-148 -26q-97 0 -146 41t-49 106q0 21 7.5 43.5t23.5 40.5q-42 20 -65.5 52.5t-23.5 75.5q0 60 45 92t118 32q17 0 42.5 -2.5t39.5 -7.5l-6 -69q-14 4 -31.5 7.5t-38.5 3.5q-88 0 -88 -65q0 -29 22 -45t56 -24q29 9 64 9q11 0 23 -1t19 -2l-6 -70q-6 1 -13.5 1
h-12.5q-94 0 -94 -70q0 -40 31 -59t83 -19zM282 -134q0 24 16 41t39 17t39 -17t16 -41q0 -25 -16 -41.5t-39 -16.5t-39 16.5t-16 41.5z" />
    <glyph glyph-name="jhanuktadeva" horiz-adv-x="756" 
d="M271 222q-29 0 -58 -7t-52 -18q-47 28 -79 66t-32 89q0 28 10 48t27 33q23 17 51.5 24.5t79.5 7.5h96v86h-314v71h771v-71h-104v-551h-81v209q-25 -7 -49 -9.5t-53 -2.5q-20 0 -46 5q9 -22 9 -48q0 -65 -41.5 -102.5t-116.5 -47.5q29 -12 60.5 -23t65.5 -21l-33 -70
q-57 26 -109 54.5t-97 56.5q-59 3 -93.5 17.5t-34.5 46.5q0 22 13.5 36.5t39.5 14.5q20 0 41.5 -10.5t51.5 -35.5q14 -2 25 -2q70 0 108.5 20.5t38.5 64.5q0 33 -24.5 51t-70.5 18zM480 268q54 0 106 15v268h-191v-157h-184q-31 0 -44 -3t-22 -10q-15 -12 -15 -34
q0 -24 14 -40.5t30 -29.5q46 17 101 17q42 0 77 -13q28 -6 58.5 -9.5t69.5 -3.5zM139 -144q0 24 16 41t39 17t39 -17t16 -41q0 -25 -16 -41.5t-39 -16.5t-39 16.5t-16 41.5z" />
    <glyph glyph-name="nyanuktadeva" horiz-adv-x="742" 
d="M192 420q31 14 63.5 20t59.5 6q67 0 114 -34t56 -97h8q24 0 43.5 4.5t35.5 12.5v219h-572v71h756v-71h-103v-551h-81v256q-40 -11 -88 -11h-1q-10 -50 -41 -77.5t-69.5 -38.5t-72.5 -11q-86 0 -153 53t-118 167l69 27q40 -93 85 -133t111 -40q55 0 86 26t31 69
q0 46 -28.5 66t-69.5 20q-25 0 -48 -7t-46 -18zM210 -8q0 24 16 41t39 17t39 -17t16 -41q0 -25 -16 -41.5t-39 -16.5t-39 16.5t-16 41.5z" />
    <glyph glyph-name="ttanuktadeva" horiz-adv-x="504" 
d="M519 551h-148v-202h-55q-48 0 -80 -8t-55 -23q-55 -38 -55 -103q0 -49 22 -80t57.5 -46t77.5 -15q54 0 92 12.5t80 34.5l27 -74q-44 -20 -94 -33.5t-102 -13.5q-69 0 -123.5 26t-85.5 75t-31 119q0 65 34 109.5t89 67.5t119 23h2v131h-290v71h519v-71zM224 -134
q0 24 16 41t39 17t39 -17t16 -41q0 -25 -16 -41.5t-39 -16.5t-39 16.5t-16 41.5z" />
    <glyph glyph-name="tthanuktadeva" horiz-adv-x="585" 
d="M600 551h-229v-137q79 -30 123.5 -86.5t44.5 -129.5q0 -70 -33 -113.5t-88 -64t-121 -20.5q-113 0 -182 56t-69 160q0 67 34 112.5t89 68.5t118 23h3v131h-290v71h600v-71zM293 72q71 0 118 30.5t47 97.5q0 48 -29 86.5t-86 62.5h-35q-74 0 -121 -28q-29 -17 -45 -44.5
t-16 -66.5q0 -70 47.5 -104t119.5 -34zM239 -134q0 24 16 41t39 17t39 -17t16 -41q0 -25 -16 -41.5t-39 -16.5t-39 16.5t-16 41.5z" />
    <glyph glyph-name="nnanuktadeva" horiz-adv-x="723" 
d="M634 551v-551h-81v551h-133v-230q0 -42 -8.5 -71.5t-26.5 -51.5q-21 -25 -54 -38.5t-80 -13.5q-93 0 -137 59q-17 23 -26 58t-9 89v199h-79v71h737v-71h-103zM249 217q52 0 72 32q11 17 14.5 39t3.5 65v198h-179v-198q0 -39 4 -62t14 -40t27 -25.5t44 -8.5zM202 9
q0 24 16 41t39 17t39 -17t16 -41q0 -25 -16 -41.5t-39 -16.5t-39 16.5t-16 41.5z" />
    <glyph glyph-name="tanuktadeva" horiz-adv-x="570" 
d="M481 551v-551h-81v328h-109q-61 0 -91.5 -6t-49.5 -23q-24 -19 -24 -62q0 -49 37 -94.5t108 -102.5l-54 -52q-47 40 -86 80t-62.5 83t-23.5 91q0 34 13.5 62.5t34.5 46.5q29 25 70 36.5t109 11.5h128v152h-400v71h584v-71h-103zM156 -149q0 24 16 41t39 17t39 -17t16 -41
q0 -25 -16 -41.5t-39 -16.5t-39 16.5t-16 41.5z" />
    <glyph glyph-name="thanuktadeva" horiz-adv-x="642" 
d="M553 551v-551h-81v180q-29 -19 -69 -33.5t-95 -14.5q-85 0 -144.5 48.5t-80.5 141.5q95 20 133.5 55.5t38.5 89.5q0 49 -23.5 75t-60.5 26q-25 0 -41 -12t-16 -35q0 -51 81 -60l-8 -70q-65 9 -103 39.5t-38 88.5q0 56 36.5 84.5t89.5 28.5q41 0 78.5 -17.5t61.5 -53.5
t24 -92q0 -74 -40 -120t-114 -75q23 -36 52 -53.5t80 -17.5q52 0 89 20t69 52v276h-82v71h266v-71h-103zM170 22q0 24 16 41t39 17t39 -17t16 -41q0 -25 -16 -41.5t-39 -16.5t-39 16.5t-16 41.5z" />
    <glyph glyph-name="danuktadeva" horiz-adv-x="520" 
d="M413 -58q-21 34 -40 69t-31 62q-12 -2 -26 -3.5t-29 -1.5q-42 0 -84.5 10.5t-78 34t-57 63t-21.5 96.5q0 44 15 75.5t41 53.5q33 29 81 42t107 13h5v95h-295v71h534v-71h-158v-166h-49q-59 0 -94 -7t-60 -23q-23 -15 -35 -38t-12 -55q0 -53 39.5 -87.5t121.5 -34.5h12
t13 1q-6 20 -6 35q0 34 21 49t46 15q43 0 65.5 -24.5t22.5 -53.5q0 -32 -14.5 -49.5t-36.5 -26.5q12 -24 28.5 -49.5t41.5 -60.5zM151 -58q0 24 16 41t39 17t39 -17t16 -41q0 -25 -16 -41.5t-39 -16.5t-39 16.5t-16 41.5z" />
    <glyph glyph-name="dhanuktadeva" horiz-adv-x="615" 
d="M630 551h-104v-551h-81v150q-31 -20 -67.5 -33.5t-94.5 -13.5q-77 0 -124.5 40.5t-47.5 107.5q0 27 9 52t28 45q-47 18 -76.5 53.5t-29.5 91.5q0 60 41 99.5t104 39.5q53 0 88.5 -28t35.5 -73q0 -47 -40 -88l-61 39q10 10 15 21.5t5 22.5q0 15 -10 28.5t-36 13.5
q-28 0 -48 -22t-20 -57q0 -32 15.5 -51.5t40 -28.5t51.5 -12q30 8 65 8q11 0 24.5 -1t20.5 -2l-7 -70q-6 1 -14.5 1h-13.5q-50 0 -78.5 -20.5t-28.5 -58.5q0 -41 28.5 -61t72.5 -20q53 0 90 21.5t63 50.5v306h-62v71h247v-71zM179 -29q0 24 16 41t39 17t39 -17t16 -41
q0 -25 -16 -41.5t-39 -16.5t-39 16.5t-16 41.5z" />
    <glyph glyph-name="panuktadeva" horiz-adv-x="568" 
d="M479 551v-551h-81v191q-29 -19 -63 -32t-81 -13q-40 0 -72.5 13.5t-53.5 34.5q-26 27 -37.5 63.5t-11.5 100.5v193h-79v71h583v-71h-104zM398 551h-238v-182q0 -41 3 -65t9.5 -38.5t17.5 -25.5q23 -23 73 -23q40 0 75 19t60 44v271zM121 12q0 24 16 41t39 17t39 -17
t16 -41q0 -25 -16 -41.5t-39 -16.5t-39 16.5t-16 41.5z" />
    <glyph glyph-name="banuktadeva" horiz-adv-x="571" 
d="M585 551h-103v-551h-81v165q-27 -18 -65.5 -32.5t-94.5 -14.5q-57 0 -101 21t-69 58.5t-25 88.5q0 86 60.5 132t158.5 46q13 0 33.5 -1.5t40 -4t30.5 -4.5l-6 -69q-20 4 -45 7t-50 3q-20 0 -38 -3l135 -168q19 14 36 32v295h-401v71h585v-71zM127 287q0 -53 33.5 -78
t81.5 -25q18 0 34.5 3t31.5 8l-140 175q-41 -28 -41 -83zM136 12q0 24 16 41t39 17t39 -17t16 -41q0 -25 -16 -41.5t-39 -16.5t-39 16.5t-16 41.5z" />
    <glyph glyph-name="bhanuktadeva" horiz-adv-x="703" 
d="M174 632q37 0 66 -10.5t51 -35.5q18 -20 29.5 -53.5t11.5 -95.5v-116h201v230h-131v71h315v-71h-103v-551h-81v250h-201v-37q0 -33 -15 -47.5t-34 -14.5t-40 12.5t-39 32t-29 41.5t-11 41q0 18 13.5 30.5t46.5 12.5h29v105q0 47 -5.5 72t-15.5 40q-20 30 -63 30
q-27 0 -41 -13t-14 -34q0 -28 23.5 -43t80.5 -18l-8 -71q-75 6 -119.5 36.5t-44.5 94.5q0 58 38 85t90 27zM243 32q0 24 16 41t39 17t39 -17t16 -41q0 -25 -16 -41.5t-39 -16.5t-39 16.5t-16 41.5z" />
    <glyph glyph-name="manuktadeva" horiz-adv-x="598" 
d="M509 551v-551h-81v250h-221v-37q0 -33 -14.5 -47.5t-33.5 -14.5t-40 12.5t-39 32t-29.5 41.5t-11.5 41q0 18 13.5 30.5t47.5 12.5h26v230h-126v71h612v-71h-103zM428 551h-221v-230h221v230zM155 27q0 24 16 41t39 17t39 -17t16 -41q0 -25 -16 -41.5t-39 -16.5t-39 16.5
t-16 41.5z" />
    <glyph glyph-name="lanuktadeva" horiz-adv-x="678" 
d="M0 551v71h693v-71h-104v-551h-81v355q-6 1 -14 1q-24 0 -49 -12t-48 -44t-41 -92l-77 24q12 46 32 81q-24 18 -48 29t-54 11q-41 0 -62 -23t-21 -59q0 -38 21.5 -72.5t62 -72.5t99.5 -86l-54 -52q-59 50 -106.5 95.5t-75.5 92t-28 99.5t24.5 86.5t61.5 49t73 15.5
q44 0 80.5 -14.5t69.5 -41.5q58 56 145 56h9v125h-508zM287 -119q0 24 16 41t39 17t39 -17t16 -41q0 -25 -16 -41.5t-39 -16.5t-39 16.5t-16 41.5z" />
    <glyph glyph-name="vanuktadeva" horiz-adv-x="556" 
d="M571 551h-104v-551h-80v165q-26 -18 -63.5 -32.5t-90.5 -14.5q-54 0 -96.5 21t-66.5 58.5t-24 88.5q0 86 57.5 132t151.5 46q13 0 32.5 -1.5t38 -4t28.5 -4.5l-5 -73q-19 4 -43 7t-47 3q-62 0 -97 -27t-35 -77q0 -51 31.5 -75t76.5 -24q52 0 89.5 22.5t62.5 49.5v291
h-387v71h571v-71zM136 12q0 24 16 41t39 17t39 -17t16 -41q0 -25 -16 -41.5t-39 -16.5t-39 16.5t-16 41.5z" />
    <glyph glyph-name="shanuktadeva" horiz-adv-x="680" 
d="M122 189q-35 0 -58.5 17.5t-23.5 48.5q0 29 18 44t46 15q18 0 37.5 -7.5t49.5 -30.5q50 16 82 59t32 108q0 55 -29.5 89t-76.5 34q-31 0 -46 -14t-15 -36q0 -16 9.5 -33t38 -29t84.5 -14l-17 -70q-94 6 -140.5 47t-46.5 100q0 51 35.5 83t102.5 32q47 0 88 -21.5
t66.5 -64t25.5 -106.5q0 -69 -34.5 -127.5t-95.5 -91.5q45 -39 87 -86.5t73 -91.5l-64 -44q-51 72 -92.5 118.5t-78.5 76.5q-27 -5 -57 -5zM591 551v-551h-81v551h-89v71h274v-71h-104zM162 -48q0 24 16 41t39 17t39 -17t16 -41q0 -25 -16 -41.5t-39 -16.5t-39 16.5
t-16 41.5z" />
    <glyph glyph-name="ssanuktadeva" horiz-adv-x="578" 
d="M593 622v-71h-104v-551h-81v191q-30 -17 -67 -31t-87 -14q-40 0 -72.5 13.5t-53.5 34.5q-26 27 -37.5 63.5t-11.5 100.5v193h-79v71h593zM408 551h-203l203 -264v264zM189 240q23 -23 73 -23q26 0 51 8t47 20l-201 262v-138q0 -41 3 -65t9.5 -38.5t17.5 -25.5zM121 12
q0 24 16 41t39 17t39 -17t16 -41q0 -25 -16 -41.5t-39 -16.5t-39 16.5t-16 41.5z" />
    <glyph glyph-name="sanuktadeva" horiz-adv-x="671" 
d="M587 551v-551h-81v266q-29 -9 -58 -12t-68 -3q-42 0 -88.5 7.5t-79.5 18.5q-20 -13 -45 -24q41 -52 96.5 -107t116.5 -104l-54 -54q-56 49 -105.5 99t-87.5 93.5t-60 75.5q-22 31 -27.5 49t-5.5 35q0 19 15 36t49 17q25 0 43.5 -11.5t33.5 -31.5q21 19 28.5 48.5
t7.5 59.5t-4.5 54t-11.5 39h-201v71h691v-71h-104zM369 322q39 0 71 4t66 13v212h-225q7 -17 12 -40t5 -53q0 -42 -9.5 -73t-26.5 -52q52 -11 107 -11zM53 36q0 24 16 41t39 17t39 -17t16 -41q0 -25 -16 -41.5t-39 -16.5t-39 16.5t-16 41.5z" />
    <glyph glyph-name="hanuktadeva" horiz-adv-x="531" 
d="M321 69q36 11 59 29t23 50q0 38 -29 59.5t-94 21.5q-69 0 -105.5 -28.5t-36.5 -76.5q0 -31 11.5 -60t47 -64.5t105.5 -88.5l-54 -53q-92 71 -141 133t-49 139q0 38 15.5 67.5t41.5 50.5q-19 18 -32.5 44t-13.5 60q0 28 10 48t27 33q22 17 52 24.5t71 7.5h132v86h-361v71
h546v-71h-104v-157h-212q-31 0 -44 -3t-22 -10q-15 -12 -15 -34q0 -20 10 -35.5t24 -27.5q47 16 101 16q68 0 112 -21t64.5 -55t20.5 -71q0 -59 -34.5 -96.5t-98.5 -54.5zM71 -184q0 24 16 41t39 17t39 -17t16 -41q0 -25 -16 -41.5t-39 -16.5t-39 16.5t-16 41.5z" />
    <glyph glyph-name="kassadeva" horiz-adv-x="712" 
d="M623 551v-551h-81v325q-31 -15 -66.5 -23.5t-85.5 -8.5t-91.5 10t-73.5 23q-47 -29 -72 -55.5t-25 -62.5q0 -20 10 -40.5t36 -34t73 -13.5q11 0 22 1q-6 18 -6 36q0 32 20 45.5t45 13.5q41 0 63 -26t22 -54t-12.5 -44t-35.5 -26q18 -23 37 -43.5t46 -46.5l-58 -41
l-51.5 61.5t-40.5 56.5q-12 -2 -26 -2.5t-27 -0.5q-59 0 -104 20.5t-70 56t-25 78.5q0 55 34.5 91.5t83.5 64.5q-44 29 -67 64.5t-23 81.5q0 53 40.5 89t116.5 36q62 0 106.5 -29t44.5 -88q0 -48 -23 -81t-64 -61q19 -5 40.5 -7t43.5 -2q46 0 85.5 10.5t77.5 36.5v140h-89
v71h274v-71h-104zM153 502q0 -33 21 -59.5t54 -43.5q75 49 75 107q0 24 -17 42t-57 18q-34 0 -55 -17t-21 -47z" />
    <glyph glyph-name="janyadeva" horiz-adv-x="641" 
d="M268 224q0 47 -42.5 84t-138.5 66l24 67h360v110h-471v71h656v-71h-104v-551h-81v370h-145q-34 0 -57 1.5t-36 3.5q60 -31 87 -70t27 -87q0 -51 -28.5 -84t-73.5 -46q28 -16 65 -31.5t71 -25.5l-33 -70q-50 20 -99 50t-90 62q-54 2 -89 15t-35 48q0 23 13.5 37.5
t39.5 14.5q21 0 42.5 -10t52.5 -36q40 5 62.5 28t22.5 54z" />
    <glyph glyph-name="rephdeva" 
d="M-190 615q-21 35 -35.5 73t-14.5 74q0 67 44.5 100.5t110.5 33.5q32 0 59 -7t47 -17l-22 -66q-17 9 -36 15t-41 6q-40 0 -61 -22.5t-21 -57.5q0 -33 13.5 -64.5t38.5 -67.5h-82z" />
    <glyph glyph-name="vattudeva" 
d="M-466 -165l248 153h40l146 -180l-59 -38l-117 145l-211 -145z" />
    <glyph glyph-name="kaprehalfdeva" horiz-adv-x="603" 
d="M618 551h-166v-217q22 15 49 24.5t66 9.5h64v-71h-51q-46 0 -72 -10t-56 -34v-253h-81v174q-24 -20 -59.5 -38t-85.5 -18q-48 0 -89 19t-66 57.5t-25 95.5q0 80 55 127t143 47q23 0 51.5 -3.5t43.5 -6.5l-6 -73q-16 4 -40.5 7t-43.5 3q-58 0 -90 -26.5t-32 -72.5
q0 -53 30.5 -78.5t70.5 -25.5q44 0 78.5 21t64.5 51v291h-371v71h618v-71z" />
    <glyph glyph-name="khaprehalfdeva" horiz-adv-x="648" 
d="M700 74q-41 -26 -90 -46.5t-122 -20.5q-108 0 -206.5 53.5t-196.5 178.5q-28 35 -36.5 57.5t-8.5 41.5q0 21 15 38t49 17q25 0 43.5 -11.5t33.5 -31.5q21 19 28.5 48.5t7.5 59.5q0 52 -16 93h-201v71h663v-71h-381q7 -18 11.5 -41t4.5 -52q0 -82 -35 -130t-97 -75
q70 -84 147.5 -129t176.5 -45q51 0 95 14t91 47zM673 215q-29 -23 -67.5 -37t-84.5 -14q-47 0 -84.5 19.5t-59 54t-21.5 81.5q0 73 48 113.5t127 40.5q17 0 44 -2.5t41 -7.5l-6 -69q-15 4 -33.5 7t-36.5 3q-48 0 -75.5 -22t-27.5 -66q0 -43 27.5 -63.5t69.5 -20.5
q35 0 64 14.5t50 33.5z" />
    <glyph glyph-name="gaprehalfdeva" horiz-adv-x="281" 
d="M208 551v-317q0 -26 -13 -41t-35 -15q-26 0 -53.5 21t-46.5 51t-19 58q0 22 13.5 36.5t47.5 14.5h25v192h-127v71h296v-71h-88z" />
    <glyph glyph-name="ghaprehalfdeva" horiz-adv-x="351" 
d="M167 269q0 -42 28 -61.5t72 -19.5q54 0 90.5 21.5t63.5 49.5l41 -60q-32 -29 -81 -55t-122 -26q-77 0 -125 40t-48 108q0 28 10 54t32 46q-40 19 -63 54t-23 77q0 31 10 54h-52v71h366v-71h-221q-22 -24 -22 -57q0 -37 21.5 -57t55.5 -25q28 7 63 7q27 0 45 -2l-6 -70
q-7 1 -15 1h-14q-49 0 -77.5 -20.5t-28.5 -58.5z" />
    <glyph glyph-name="ngaprehalfdeva" horiz-adv-x="647" 
d="M358 222q-29 0 -58 -7t-52 -18q-46 27 -78.5 65t-32.5 90q0 28 10 48t27 33q22 17 53 24.5t81 7.5h93v86h-401v71h662v-71h-180v-157h-184q-31 0 -44 -3t-22 -10q-15 -12 -15 -34q0 -24 13.5 -40.5t30.5 -29.5q46 17 101 17q74 0 123 -38t49 -102q0 -68 -49 -111
t-148 -43q-98 0 -175.5 44t-136.5 114l61 49q57 -68 116.5 -100.5t134.5 -32.5q116 0 116 78q0 34 -24.5 52t-70.5 18zM511 337q0 23 15 39t37 16t37 -16t15 -39t-15 -39t-37 -16t-37 16t-15 39zM263 -44q23 5 48 5q67 0 118 -25.5t90.5 -68.5t73.5 -94l-57 -41
q-50 80 -101 117.5t-118 37.5q-12 0 -22.5 -1.5t-19.5 -3.5z" />
    <glyph glyph-name="caprehalfdeva" horiz-adv-x="396" 
d="M0 622h410v-71h-410v71zM509 200q-18 -16 -44.5 -35t-63.5 -33t-84 -14q-77 0 -126.5 43t-49.5 114q0 29 12.5 54t31.5 42l-147 -2v72h293q18 0 35.5 -0.5t22.5 -0.5l-7 -70h-32q-58 0 -93.5 -24.5t-35.5 -71.5q0 -43 29 -64.5t67 -21.5q51 0 87 22.5t65 51.5z" />
    <glyph glyph-name="chaprehalfdeva" horiz-adv-x="701" 
d="M0 551v71h715v-71h-715zM296 70q76 0 139.5 31.5t101 85.5t37.5 123q0 46 -23 77.5t-64 31.5q-34 0 -48.5 -18t-14.5 -43q0 -32 26 -58t85 -39l-33 -63q-81 23 -118 64.5t-37 93.5q0 55 36 91t104 36q46 0 83.5 -19.5t60 -58.5t22.5 -97t-25 -113t-71.5 -99t-112.5 -70
t-148 -26q-97 0 -146 41t-49 106q0 21 7.5 43.5t23.5 40.5q-42 20 -65.5 52.5t-23.5 75.5q0 60 45 92t118 32q17 0 42.5 -2.5t39.5 -7.5l-6 -69q-14 4 -31.5 7.5t-38.5 3.5q-88 0 -88 -65q0 -29 22 -45t56 -24q29 9 64 9q11 0 23 -1t19 -2l-6 -70q-6 1 -13.5 1h-12.5
q-94 0 -94 -70q0 -40 31 -59t83 -19z" />
    <glyph glyph-name="japrehalfdeva" horiz-adv-x="572" 
d="M0 622h587v-71h-587v71zM572 370h-137q-41 0 -57 3q36 -30 58 -70t22 -85q0 -46 -20.5 -77t-54 -46t-73.5 -15q-53 0 -101 30.5t-92 101t-86 189.5l71 25q46 -134 96 -203.5t108 -69.5q32 0 52.5 17t20.5 57q0 44 -30.5 82.5t-75.5 67.5l29 64h270v-71z" />
    <glyph glyph-name="jhaprehalfdeva" horiz-adv-x="497" 
d="M271 222q-29 0 -58 -7t-52 -18q-47 28 -79 66t-32 89q0 28 10 48t27 33q23 17 51.5 24.5t79.5 7.5h96v86h-314v71h512v-71h-117v-157h-184q-31 0 -44 -3t-22 -10q-15 -12 -15 -34q0 -24 14 -40.5t30 -29.5q46 17 101 17q42 0 77 -13q28 -6 58.5 -9.5t69.5 -3.5
q37 0 62.5 4.5t43.5 10.5l13 -69q-23 -8 -48.5 -12.5t-66.5 -4.5q-20 0 -46 5q9 -22 9 -48q0 -65 -41.5 -102.5t-116.5 -47.5q29 -12 60.5 -23t65.5 -21l-33 -70q-57 26 -109 54.5t-97 56.5q-59 3 -93.5 17.5t-34.5 46.5q0 22 13.5 36.5t39.5 14.5q20 0 41.5 -10.5
t51.5 -35.5q14 -2 25 -2q70 0 108.5 20.5t38.5 64.5q0 33 -24.5 51t-70.5 18z" />
    <glyph glyph-name="nyaprehalfdeva" horiz-adv-x="540" 
d="M0 622h554v-71h-554v71zM192 420q31 14 63.5 20t59.5 6q67 0 114 -34t56 -97h8q23 0 43 4.5t36 12.5v-77q-20 -5 -41.5 -7.5t-46.5 -2.5h-1q-10 -50 -41 -77.5t-69.5 -38.5t-72.5 -11q-86 0 -153 53t-118 167l69 27q40 -93 85 -133t111 -40q55 0 86 26t31 69
q0 46 -28.5 66t-69.5 20q-25 0 -48 -7t-46 -18z" />
    <glyph glyph-name="ttaprehalfdeva" horiz-adv-x="504" 
d="M519 551h-148v-202h-55q-48 0 -80 -8t-55 -23q-55 -38 -55 -103q0 -49 22 -80t57.5 -46t77.5 -15q54 0 92 12.5t80 34.5l27 -74q-44 -20 -94 -33.5t-102 -13.5q-69 0 -123.5 26t-85.5 75t-31 119q0 65 34 109.5t89 67.5t119 23h2v131h-290v71h519v-71zM218 -44q23 5 48 5
q67 0 118 -25.5t90.5 -68.5t73.5 -94l-57 -41q-50 80 -101 117.5t-118 37.5q-12 0 -22.5 -1.5t-19.5 -3.5z" />
    <glyph glyph-name="tthaprehalfdeva" horiz-adv-x="585" 
d="M600 551h-229v-137q79 -30 123.5 -86.5t44.5 -129.5q0 -70 -33 -113.5t-88 -64t-121 -20.5q-113 0 -182 56t-69 160q0 67 34 112.5t89 68.5t118 23h3v131h-290v71h600v-71zM293 72q71 0 118 30.5t47 97.5q0 48 -29 86.5t-86 62.5h-35q-74 0 -121 -28q-29 -17 -45 -44.5
t-16 -66.5q0 -70 47.5 -104t119.5 -34zM217 -44q23 5 48 5q67 0 118 -25.5t90.5 -68.5t73.5 -94l-57 -41q-50 80 -101 117.5t-118 37.5q-12 0 -22.5 -1.5t-19.5 -3.5z" />
    <glyph glyph-name="ddaprehalfdeva" horiz-adv-x="577" 
d="M358 222q-29 0 -58 -7t-52 -18q-47 28 -79 66t-32 89q0 28 10 48t27 33q22 17 53 24.5t81 7.5h93v86h-401v71h592v-71h-110v-157h-184q-31 0 -44 -3t-22 -10q-15 -12 -15 -34q0 -24 13.5 -40.5t30.5 -29.5q46 17 101 17q74 0 123 -38t49 -102q0 -68 -49 -111t-148 -43
q-98 0 -175.5 44t-136.5 114l61 49q57 -68 116.5 -100.5t134.5 -32.5q116 0 116 78q0 34 -24.5 52t-70.5 18zM263 -44q23 5 48 5q67 0 118 -25.5t90.5 -68.5t73.5 -94l-57 -41q-50 80 -101 117.5t-118 37.5q-12 0 -22.5 -1.5t-19.5 -3.5z" />
    <glyph glyph-name="ddhaprehalfdeva" horiz-adv-x="563" 
d="M307 0q-78 0 -136.5 27.5t-91.5 79t-33 124.5q0 70 36 117.5t95 72t128 25.5v105h-305v71h577v-71h-192v-176h-39q-64 0 -98.5 -8.5t-59.5 -25.5q-30 -19 -46 -49t-16 -71q0 -58 32 -95t90 -51q-15 40 -15 82q0 34 16.5 64t49 48.5t81.5 18.5t80.5 -18.5t47 -48.5
t15.5 -64q0 -70 -57.5 -113.5t-158.5 -43.5zM306 140q0 -37 17 -70q55 1 90 23.5t35 63.5q0 30 -17.5 47t-45.5 17q-35 0 -57 -21.5t-22 -59.5zM220 -44q23 5 48 5q67 0 118 -25.5t90.5 -68.5t73.5 -94l-57 -41q-50 80 -101 117.5t-118 37.5q-12 0 -22.5 -1.5t-19.5 -3.5z
" />
    <glyph glyph-name="nnaprehalfdeva" horiz-adv-x="467" 
d="M251 146q-93 0 -137 59q-17 23 -26 58t-9 89v199h-79v71h481v-71h-61v-230q0 -42 -8.5 -71.5t-26.5 -51.5q-21 -25 -54 -38.5t-80 -13.5zM249 217q52 0 72 32q11 17 14.5 39t3.5 65v198h-179v-198q0 -39 4 -62t14 -40t27 -25.5t44 -8.5z" />
    <glyph glyph-name="taprehalfdeva" horiz-adv-x="349" 
d="M0 622h363v-71h-363v71zM45 242q0 34 13.5 62.5t34.5 46.5q29 25 70 36.5t109 11.5h108v-71h-89q-61 0 -91.5 -6t-49.5 -23q-24 -19 -24 -62q0 -49 37 -94.5t108 -102.5l-54 -52q-47 40 -86 80t-62.5 83t-23.5 91z" />
    <glyph glyph-name="thaprehalfdeva" horiz-adv-x="389" 
d="M187 391q-65 9 -103 39.5t-38 88.5q0 56 36.5 84.5t89.5 28.5q41 0 78.5 -17.5t61.5 -53.5t24 -92q0 -73 -40 -120t-114 -76q23 -35 52 -52.5t80 -17.5t88.5 20t69.5 52l37 -67q-37 -32 -85.5 -54t-115.5 -22q-85 0 -144.5 48.5t-80.5 141.5q95 20 133.5 55.5t38.5 89.5
q0 49 -23.5 75t-60.5 26q-25 0 -41 -12t-16 -35q0 -51 81 -60z" />
    <glyph glyph-name="daprehalfdeva" horiz-adv-x="520" 
d="M413 -58q-21 34 -40 69t-31 62q-12 -2 -26 -3.5t-29 -1.5q-42 0 -84.5 10.5t-78 34t-57 63t-21.5 96.5q0 44 15 75.5t41 53.5q33 29 81 42t107 13h5v95h-295v71h534v-71h-158v-166h-49q-59 0 -94 -7t-60 -23q-23 -15 -35 -38t-12 -55q0 -53 39.5 -87.5t121.5 -34.5h12
t13 1q-6 20 -6 35q0 34 21 49t46 15q43 0 65.5 -24.5t22.5 -53.5q0 -32 -14.5 -49.5t-36.5 -26.5q12 -24 28.5 -49.5t41.5 -60.5zM287 -44q23 5 48 5q67 0 118 -25.5t90.5 -68.5t73.5 -94l-57 -41q-50 80 -101 117.5t-118 37.5q-12 0 -22.5 -1.5t-19.5 -3.5z" />
    <glyph glyph-name="dhaprehalfdeva" horiz-adv-x="362" 
d="M482 178q-38 -32 -83 -53.5t-116 -21.5q-77 0 -124.5 40.5t-47.5 107.5q0 27 9 52t28 45q-47 18 -76.5 53.5t-29.5 91.5q0 60 41 99.5t104 39.5q53 0 88.5 -28t35.5 -73q0 -47 -40 -88l-61 39q10 10 15 21.5t5 22.5q0 15 -10 28.5t-36 13.5q-28 0 -48 -22t-20 -57
q0 -32 15.5 -51.5t40 -28.5t51.5 -12q30 8 65 8q11 0 24.5 -1t20.5 -2l-7 -70q-6 1 -14.5 1h-13.5q-50 0 -78.5 -20.5t-28.5 -58.5q0 -41 28.5 -61t72.5 -20q53 0 90 21.5t63 50.5z" />
    <glyph glyph-name="naprehalfdeva" horiz-adv-x="358" 
d="M0 622h373v-71h-373v71zM204 298v-54q0 -28 -14 -42t-37 -14q-25 0 -51.5 21t-45.5 51t-19 58q0 22 13.5 36.5t47.5 14.5h287v-71h-181z" />
    <glyph glyph-name="paprehalfdeva" horiz-adv-x="308" 
d="M160 551v-182q0 -41 3 -65t9.5 -38.5t17.5 -25.5q23 -23 73 -23q41 0 76.5 19.5t60.5 45.5l36 -68q-40 -28 -81.5 -48t-100.5 -20q-40 0 -72.5 13.5t-53.5 34.5q-26 27 -37.5 63.5t-11.5 100.5v193h-79v71h322v-71h-162z" />
    <glyph glyph-name="phaprehalfdeva" horiz-adv-x="612" 
d="M626 551h-166v-214q23 15 49.5 23t66.5 8h64v-71h-52q-46 0 -72 -7t-56 -33v-257h-81v193q-23 -19 -55 -33t-76 -14q-40 0 -72 14.5t-51 36.5q-25 29 -35.5 64.5t-10.5 92.5v197h-79v71h626v-71zM160 551v-191q0 -55 6 -79t22 -41q20 -23 60 -23q42 0 73.5 17.5
t57.5 44.5v272h-219z" />
    <glyph glyph-name="baprehalfdeva" horiz-adv-x="401" 
d="M0 622h416v-71h-416v71zM439 193q-37 -31 -85 -53t-113 -22q-57 0 -101 21t-69 58.5t-25 88.5q0 86 60.5 132t158.5 46q13 0 33.5 -1.5t40 -4t30.5 -4.5l-6 -69q-20 4 -45 7t-50 3q-20 0 -38 -3l135 -167q10 7 19 15t17 16zM127 287q0 -53 33.5 -78t81.5 -25q18 0 34.5 3
t31.5 8l-140 175q-41 -28 -41 -83z" />
    <glyph glyph-name="bhaprehalfdeva" horiz-adv-x="439" 
d="M332 250v-37q0 -33 -15 -47.5t-34 -14.5t-40 12.5t-39 32t-29 41.5t-11 41q0 18 13.5 30.5t46.5 12.5h29v105q0 47 -5.5 72t-15.5 40q-20 30 -63 30q-27 0 -41 -13t-14 -34q0 -28 23.5 -43t80.5 -18l-8 -71q-75 6 -119.5 36.5t-44.5 94.5q0 58 38 85t90 27q37 0 66 -10.5
t51 -35.5q18 -20 29.5 -53.5t11.5 -95.5v-116h201v-71h-201zM402 622h52v-71h-52v71z" />
    <glyph glyph-name="maprehalfdeva" horiz-adv-x="350" 
d="M207 321h221v-71h-221v-37q0 -33 -14.5 -47.5t-33.5 -14.5t-40 12.5t-39 32t-29.5 41.5t-11.5 41q0 18 13.5 30.5t47.5 12.5h26v230h-126v71h364v-71h-157v-230z" />
    <glyph glyph-name="yaprehalfdeva" horiz-adv-x="328" 
d="M449 208q-38 -32 -84.5 -54t-111.5 -22q-90 0 -145.5 60.5t-69.5 160.5q62 13 92 36.5t30 67.5q0 28 -11.5 52t-25.5 42h-123v71h343v-71h-132q29 -52 29 -106q0 -108 -111 -144q19 -49 50 -73.5t80 -24.5q50 0 88 21.5t64 50.5z" />
    <glyph glyph-name="raprehalfdeva" horiz-adv-x="399" 
d="M0 551v71h414v-71h-414zM446 286q-32 -20 -72 -28.5t-84 -8.5q-66 0 -128.5 17.5t-134.5 55.5l31 67q56 -30 107 -48t106 -18q54 0 89.5 8.5t75.5 27.5z" />
    <glyph glyph-name="laprehalfdeva" horiz-adv-x="500" 
d="M0 622h515v-71h-515v71zM537 349q-20 7 -43 7q-24 0 -49 -12t-48 -44t-41 -92l-77 24q12 46 32 81q-23 18 -47.5 29t-54.5 11q-41 0 -62 -23t-21 -59q0 -38 21.5 -72.5t62 -72.5t99.5 -86l-54 -52q-59 50 -106.5 95.5t-75.5 92t-28 99.5t24.5 86.5t61 49t73.5 15.5
q44 0 80.5 -14.5t69.5 -41.5q59 56 146 56q14 0 29.5 -2t26.5 -7z" />
    <glyph glyph-name="llaprehalfdeva" horiz-adv-x="716" 
d="M0 622h731v-71h-731v71zM714 250q0 -54 -21.5 -96t-61 -66.5t-93.5 -24.5t-94 22t-79 57q-31 -45 -67.5 -62t-81.5 -17q-47 0 -85.5 21.5t-61.5 63.5t-23 104q0 56 22.5 98t62 65.5t91.5 23.5q54 0 93.5 -21.5t78.5 -57.5q32 47 67.5 63t81.5 16q47 0 86 -22t62 -64.5
t23 -102.5zM404 214q-3 -6 -5 -11q33 -33 63.5 -50.5t65.5 -17.5q42 0 73.5 27.5t31.5 89.5q0 64 -27.5 90t-64.5 26q-38 0 -64.5 -26.5t-50.5 -79.5zM126 250q0 -62 27.5 -88.5t64.5 -26.5q38 0 65 26.5t50 78.5l22 49l5 10q-33 33 -63 51t-65 18q-42 0 -74 -28t-32 -90z
" />
    <glyph glyph-name="vaprehalfdeva" horiz-adv-x="392" 
d="M0 622h406v-71h-406v71zM425 193q-37 -31 -84.5 -53t-107.5 -22q-54 0 -96.5 21t-66.5 58.5t-24 88.5q0 86 57.5 132t151.5 46q13 0 32.5 -1.5t38 -4t28.5 -4.5l-5 -73q-19 4 -43 7t-47 3q-62 0 -97 -27t-35 -77q0 -51 31.5 -75t76.5 -24q52 0 89.5 22.5t62.5 48.5z" />
    <glyph glyph-name="shaprehalfdeva" horiz-adv-x="407" 
d="M122 189q-35 0 -58.5 17.5t-23.5 48.5q0 29 18 44t46 15q18 0 37.5 -7.5t49.5 -30.5q50 16 82 59t32 108q0 55 -29.5 89t-76.5 34q-31 0 -46 -14t-15 -36q0 -16 9.5 -33t38 -29t84.5 -14l-17 -70q-94 6 -140.5 47t-46.5 100q0 51 35.5 83t102.5 32q47 0 88 -21.5
t66.5 -64t25.5 -106.5q0 -69 -34.5 -127.5t-95.5 -91.5q45 -39 87 -86.5t73 -91.5l-64 -44q-51 72 -92.5 118.5t-78.5 76.5q-27 -5 -57 -5z" />
    <glyph glyph-name="ssaprehalfdeva" horiz-adv-x="376" 
d="M409 286l37 -69q-40 -28 -83 -49.5t-109 -21.5q-40 0 -72.5 13.5t-53.5 34.5q-26 27 -37.5 63.5t-11.5 100.5v193h-79v71h391v-71h-186zM262 217q26 0 51 8t47 20l-201 262v-138q0 -41 3 -65t9.5 -38.5t17.5 -25.5q23 -23 73 -23z" />
    <glyph glyph-name="saprehalfdeva" horiz-adv-x="389" 
d="M369 322q31 0 56 2.5t53 7.5l8 -72q-26 -5 -52 -7t-54 -2q-42 0 -88.5 7.5t-79.5 18.5q-20 -13 -45 -24q41 -52 96.5 -107t116.5 -104l-54 -54q-56 49 -105.5 99t-87.5 93.5t-60 75.5q-22 31 -27.5 49t-5.5 35q0 19 15 36t49 17q25 0 43.5 -11.5t33.5 -31.5
q21 19 28.5 48.5t7.5 59.5t-4.5 54t-11.5 39h-201v71h403v-71h-122q7 -17 12 -40t5 -53q0 -42 -9.5 -73t-26.5 -52q52 -11 107 -11z" />
    <glyph glyph-name="haprehalfdeva" horiz-adv-x="432" 
d="M480 229h-169q-57 0 -87 -7.5t-48 -20.5q-38 -27 -38 -77q0 -31 11.5 -60t47 -64.5t105.5 -88.5l-54 -53q-92 71 -141 133t-49 139q0 37 16 66t42 51q-19 18 -33 44t-14 61q0 28 10 48t27 33q22 17 52 24.5t71 7.5h69v86h-298v71h447v-71h-69v-157h-148q-31 0 -44 -3
t-22 -10q-15 -12 -15 -34q0 -20 10 -35.5t25 -27.5q24 8 59 12t91 4h146v-71z" />
    <glyph glyph-name="zhaprehalfdeva" horiz-adv-x="572" 
d="M0 622h587v-71h-587v71zM310 123q-53 0 -101 29t-92 95t-86 178l71 25q46 -125 96 -189t108 -64q32 0 52.5 15t20.5 52q0 40 -30.5 75.5t-75.5 61.5l29 64h270v-71h-137q-39 0 -55 2q35 -28 56.5 -65t21.5 -78q0 -44 -20.5 -73t-54 -43t-73.5 -14zM213 2q-20 0 -35 15.5
t-15 37.5q0 21 15 36.5t35 15.5t35 -15.5t15 -36.5q0 -22 -15 -37.5t-35 -15.5zM398 2q-20 0 -34.5 15.5t-14.5 37.5q0 21 14.5 36.5t34.5 15.5q21 0 35.5 -15.5t14.5 -36.5q0 -22 -14.5 -37.5t-35.5 -15.5zM306 -87q-21 0 -35.5 15t-14.5 37t14.5 37t35.5 15q20 0 34.5 -15
t14.5 -37t-14.5 -37t-34.5 -15z" />
    <glyph glyph-name="heavyyaprehalfdeva" horiz-adv-x="328" 
d="M253 132q-90 0 -145.5 60.5t-69.5 160.5q62 13 92 36.5t30 67.5q0 28 -11.5 52t-25.5 42h-123v71h343v-71h-132q10 -22 16 -42l187 -236l11 -87q-32 -21 -74.5 -37.5t-97.5 -16.5zM273 346l-21.5 27.5l-22.5 29.5q-7 -36 -31.5 -62t-68.5 -40q20 -49 50.5 -73.5
t79.5 -24.5q34 0 60 8.5t47 21.5z" />
    <glyph glyph-name="kassaprehalfdeva" horiz-adv-x="460" 
d="M513 313q-23 -8 -51.5 -14t-71.5 -6q-50 0 -91.5 10t-73.5 23q-47 -29 -72 -55.5t-25 -62.5q0 -20 10 -40.5t36 -34t73 -13.5q11 0 22 1q-6 18 -6 36q0 32 20 45.5t45 13.5q41 0 63 -26t22 -54t-12.5 -44t-35.5 -26q18 -23 37 -43.5t46 -46.5l-58 -41l-51.5 61.5
t-40.5 56.5q-12 -2 -26 -2.5t-27 -0.5q-59 0 -104 20.5t-70 56t-25 78.5q0 55 34.5 91.5t83.5 64.5q-44 29 -67 64.5t-23 81.5q0 53 40.5 89t116.5 36q62 0 106.5 -29t44.5 -88q0 -48 -23 -81t-64 -61q20 -5 42 -7t42 -2q34 0 61.5 5t55.5 17zM153 502q0 -33 21 -59.5
t54 -43.5q75 49 75 107q0 24 -17 42t-57 18q-34 0 -55 -17t-21 -47z" />
    <glyph glyph-name="janyaprehalfdeva" horiz-adv-x="418" 
d="M0 622h433v-71h-433v71zM268 224q0 47 -42.5 84t-138.5 66l24 67h346v-71h-131q-34 0 -57 1.5t-36 3.5q60 -31 87 -70t27 -87q0 -51 -28.5 -84t-73.5 -46q28 -16 65 -31.5t71 -25.5l-33 -70q-50 20 -99 50t-90 62q-54 2 -89 15t-35 48q0 23 13.5 37.5t39.5 14.5
q21 0 42.5 -10t52.5 -36q40 5 62.5 28t22.5 54z" />
    <glyph glyph-name="kanuktaprehalfdeva" horiz-adv-x="603" 
d="M618 551h-166v-217q22 15 49 24.5t66 9.5h64v-71h-51q-46 0 -72 -10t-56 -34v-253h-81v174q-24 -20 -59.5 -38t-85.5 -18q-48 0 -89 19t-66 57.5t-25 95.5q0 80 55 127t143 47q23 0 51.5 -3.5t43.5 -6.5l-6 -73q-16 4 -40.5 7t-43.5 3q-58 0 -90 -26.5t-32 -72.5
q0 -53 30.5 -78.5t70.5 -25.5q44 0 78.5 21t64.5 51v291h-371v71h618v-71zM87 12q0 24 16 41t39 17t39 -17t16 -41q0 -25 -16 -41.5t-39 -16.5t-39 16.5t-16 41.5z" />
    <glyph glyph-name="khanuktaprehalfdeva" horiz-adv-x="648" 
d="M700 74q-41 -26 -90 -46.5t-122 -20.5q-108 0 -206.5 53.5t-196.5 178.5q-28 35 -36.5 57.5t-8.5 41.5q0 21 15 38t49 17q25 0 43.5 -11.5t33.5 -31.5q21 19 28.5 48.5t7.5 59.5q0 52 -16 93h-201v71h663v-71h-381q7 -18 11.5 -41t4.5 -52q0 -82 -35 -130t-97 -75
q70 -84 147.5 -129t176.5 -45q51 0 95 14t91 47zM673 215q-29 -23 -67.5 -37t-84.5 -14q-47 0 -84.5 19.5t-59 54t-21.5 81.5q0 73 48 113.5t127 40.5q17 0 44 -2.5t41 -7.5l-6 -69q-15 4 -33.5 7t-36.5 3q-48 0 -75.5 -22t-27.5 -66q0 -43 27.5 -63.5t69.5 -20.5
q35 0 64 14.5t50 33.5zM53 36q0 24 16 41t39 17t39 -17t16 -41q0 -25 -16 -41.5t-39 -16.5t-39 16.5t-16 41.5z" />
    <glyph glyph-name="ganuktaprehalfdeva" horiz-adv-x="281" 
d="M208 551v-317q0 -26 -13 -41t-35 -15q-26 0 -53.5 21t-46.5 51t-19 58q0 22 13.5 36.5t47.5 14.5h25v192h-127v71h296v-71h-88zM106 36q0 24 16 41t39 17t39 -17t16 -41q0 -25 -16 -41.5t-39 -16.5t-39 16.5t-16 41.5z" />
    <glyph glyph-name="ghanuktaprehalfdeva" horiz-adv-x="351" 
d="M167 269q0 -42 28 -61.5t72 -19.5q54 0 90.5 21.5t63.5 49.5l41 -60q-32 -29 -81 -55t-122 -26q-77 0 -125 40t-48 108q0 28 10 54t32 46q-40 19 -63 54t-23 77q0 31 10 54h-52v71h366v-71h-221q-22 -24 -22 -57q0 -37 21.5 -57t55.5 -25q28 7 63 7q27 0 45 -2l-6 -70
q-7 1 -15 1h-14q-49 0 -77.5 -20.5t-28.5 -58.5zM111 12q0 24 16 41t39 17t39 -17t16 -41q0 -25 -16 -41.5t-39 -16.5t-39 16.5t-16 41.5z" />
    <glyph glyph-name="nganuktaprehalfdeva" horiz-adv-x="647" 
d="M358 222q-29 0 -58 -7t-52 -18q-46 27 -78.5 65t-32.5 90q0 28 10 48t27 33q22 17 53 24.5t81 7.5h93v86h-401v71h662v-71h-180v-157h-184q-31 0 -44 -3t-22 -10q-15 -12 -15 -34q0 -24 13.5 -40.5t30.5 -29.5q46 17 101 17q74 0 123 -38t49 -102q0 -68 -49 -111
t-148 -43q-98 0 -175.5 44t-136.5 114l61 49q57 -68 116.5 -100.5t134.5 -32.5q116 0 116 78q0 34 -24.5 52t-70.5 18zM511 337q0 23 15 39t37 16t37 -16t15 -39t-15 -39t-37 -16t-37 16t-15 39zM263 -44q23 5 48 5q67 0 118 -25.5t90.5 -68.5t73.5 -94l-57 -41
q-50 80 -101 117.5t-118 37.5q-12 0 -22.5 -1.5t-19.5 -3.5zM114 -149q0 24 16 41t39 17t39 -17t16 -41t-16 -41t-39 -17t-39 17t-16 41z" />
    <glyph glyph-name="canuktaprehalfdeva" horiz-adv-x="396" 
d="M0 622h410v-71h-410v71zM509 200q-18 -16 -44.5 -35t-63.5 -33t-84 -14q-77 0 -126.5 43t-49.5 114q0 29 12.5 54t31.5 42l-147 -2v72h293q18 0 35.5 -0.5t22.5 -0.5l-7 -70h-32q-58 0 -93.5 -24.5t-35.5 -71.5q0 -43 29 -64.5t67 -21.5q51 0 87 22.5t65 51.5zM141 12
q0 24 16 41t39 17t39 -17t16 -41q0 -25 -16 -41.5t-39 -16.5t-39 16.5t-16 41.5z" />
    <glyph glyph-name="chanuktaprehalfdeva" horiz-adv-x="701" 
d="M0 551v71h715v-71h-715zM296 70q76 0 139.5 31.5t101 85.5t37.5 123q0 46 -23 77.5t-64 31.5q-34 0 -48.5 -18t-14.5 -43q0 -32 26 -58t85 -39l-33 -63q-81 23 -118 64.5t-37 93.5q0 55 36 91t104 36q46 0 83.5 -19.5t60 -58.5t22.5 -97t-25 -113t-71.5 -99t-112.5 -70
t-148 -26q-97 0 -146 41t-49 106q0 21 7.5 43.5t23.5 40.5q-42 20 -65.5 52.5t-23.5 75.5q0 60 45 92t118 32q17 0 42.5 -2.5t39.5 -7.5l-6 -69q-14 4 -31.5 7.5t-38.5 3.5q-88 0 -88 -65q0 -29 22 -45t56 -24q29 9 64 9q11 0 23 -1t19 -2l-6 -70q-6 1 -13.5 1h-12.5
q-94 0 -94 -70q0 -40 31 -59t83 -19zM282 -134q0 24 16 41t39 17t39 -17t16 -41q0 -25 -16 -41.5t-39 -16.5t-39 16.5t-16 41.5z" />
    <glyph glyph-name="januktaprehalfdeva" horiz-adv-x="572" 
d="M0 622h587v-71h-587v71zM572 370h-137q-41 0 -57 3q36 -30 58 -70t22 -85q0 -46 -20.5 -77t-54 -46t-73.5 -15q-53 0 -101 30.5t-92 101t-86 189.5l71 25q46 -134 96 -203.5t108 -69.5q32 0 52.5 17t20.5 57q0 44 -30.5 82.5t-75.5 67.5l29 64h270v-71zM223 -55
q0 24 16 41t39 17t39 -17t16 -41q0 -25 -16 -41.5t-39 -16.5t-39 16.5t-16 41.5z" />
    <glyph glyph-name="jhanuktaprehalfdeva" horiz-adv-x="497" 
d="M271 222q-29 0 -58 -7t-52 -18q-47 28 -79 66t-32 89q0 28 10 48t27 33q23 17 51.5 24.5t79.5 7.5h96v86h-314v71h512v-71h-117v-157h-184q-31 0 -44 -3t-22 -10q-15 -12 -15 -34q0 -24 14 -40.5t30 -29.5q46 17 101 17q42 0 77 -13q28 -6 58.5 -9.5t69.5 -3.5
q37 0 62.5 4.5t43.5 10.5l13 -69q-23 -8 -48.5 -12.5t-66.5 -4.5q-20 0 -46 5q9 -22 9 -48q0 -65 -41.5 -102.5t-116.5 -47.5q29 -12 60.5 -23t65.5 -21l-33 -70q-57 26 -109 54.5t-97 56.5q-59 3 -93.5 17.5t-34.5 46.5q0 22 13.5 36.5t39.5 14.5q20 0 41.5 -10.5
t51.5 -35.5q14 -2 25 -2q70 0 108.5 20.5t38.5 64.5q0 33 -24.5 51t-70.5 18zM139 -144q0 24 16 41t39 17t39 -17t16 -41q0 -25 -16 -41.5t-39 -16.5t-39 16.5t-16 41.5z" />
    <glyph glyph-name="nyanuktaprehalfdeva" horiz-adv-x="540" 
d="M0 622h554v-71h-554v71zM192 420q31 14 63.5 20t59.5 6q67 0 114 -34t56 -97h8q23 0 43 4.5t36 12.5v-77q-20 -5 -41.5 -7.5t-46.5 -2.5h-1q-10 -50 -41 -77.5t-69.5 -38.5t-72.5 -11q-86 0 -153 53t-118 167l69 27q40 -93 85 -133t111 -40q55 0 86 26t31 69
q0 46 -28.5 66t-69.5 20q-25 0 -48 -7t-46 -18zM210 -8q0 24 16 41t39 17t39 -17t16 -41q0 -25 -16 -41.5t-39 -16.5t-39 16.5t-16 41.5z" />
    <glyph glyph-name="ttanuktaprehalfdeva" horiz-adv-x="504" 
d="M519 551h-148v-202h-55q-48 0 -80 -8t-55 -23q-55 -38 -55 -103q0 -49 22 -80t57.5 -46t77.5 -15q54 0 92 12.5t80 34.5l27 -74q-44 -20 -94 -33.5t-102 -13.5q-69 0 -123.5 26t-85.5 75t-31 119q0 65 34 109.5t89 67.5t119 23h2v131h-290v71h519v-71zM218 -44q23 5 48 5
q67 0 118 -25.5t90.5 -68.5t73.5 -94l-57 -41q-50 80 -101 117.5t-118 37.5q-12 0 -22.5 -1.5t-19.5 -3.5zM69 -149q0 24 16 41t39 17t39 -17t16 -41t-16 -41t-39 -17t-39 17t-16 41z" />
    <glyph glyph-name="tthanuktaprehalfdeva" horiz-adv-x="585" 
d="M600 551h-229v-137q79 -30 123.5 -86.5t44.5 -129.5q0 -70 -33 -113.5t-88 -64t-121 -20.5q-113 0 -182 56t-69 160q0 67 34 112.5t89 68.5t118 23h3v131h-290v71h600v-71zM293 72q71 0 118 30.5t47 97.5q0 48 -29 86.5t-86 62.5h-35q-74 0 -121 -28q-29 -17 -45 -44.5
t-16 -66.5q0 -70 47.5 -104t119.5 -34zM217 -44q23 5 48 5q67 0 118 -25.5t90.5 -68.5t73.5 -94l-57 -41q-50 80 -101 117.5t-118 37.5q-12 0 -22.5 -1.5t-19.5 -3.5zM68 -149q0 24 16 41t39 17t39 -17t16 -41t-16 -41t-39 -17t-39 17t-16 41z" />
    </font>
</defs>
</svg>
