<?xml version="1.0" standalone="no"?>
<!DOCTYPE svg PUBLIC "-//W3C//DTD SVG 1.1//EN" "http://www.w3.org/Graphics/SVG/1.1/DTD/svg11.dtd" >
<svg>
<metadata>
Created by FontForge 20090622 at Thu Sep 27 05:34:06 2018
 By deploy user
Copyright 2015 Google Inc. All Rights Reserved.
</metadata>
<defs>
<font id="NotoSansDevanagariUI-Light" horiz-adv-x="0" >
  <font-face 
    font-family="Noto Sans Devanagari Lt"
    font-weight="300"
    font-stretch="normal"
    units-per-em="1000"
    panose-1="2 11 4 2 4 5 4 2 2 4"
    ascent="800"
    descent="-200"
    bbox="-566 -269 1342 1347"
    underline-thickness="50"
    underline-position="-75"
    unicode-range="U+000D-U+A8FD"
  />
<missing-glyph horiz-adv-x="600" 
d="M94 714h411v-714h-411v714zM454 51v612h-309v-612h309z" />
    <glyph glyph-name=".notdef" horiz-adv-x="600" 
d="M94 714h411v-714h-411v714zM454 51v612h-309v-612h309z" />
    <glyph glyph-name="null" 
 />
    <glyph glyph-name="null" 
 />
    <glyph glyph-name="CR" unicode="&#xd;" horiz-adv-x="260" 
 />
    <glyph glyph-name="space" unicode=" " horiz-adv-x="260" 
 />
    <glyph glyph-name="binducandradeva" unicode="&#x900;" 
d="M-326 722q22 92 69.5 133t120.5 41q70 0 119 -44t80 -129l-47 -17q-24 70 -59.5 107t-93.5 37q-59 0 -90 -37t-49 -107zM-96 737q0 -20 -11 -32t-27 -12t-28 12.5t-12 31.5q0 20 12 32t28 12q15 0 26.5 -12t11.5 -32z" />
    <glyph glyph-name="candrabindudeva" unicode="&#x901;" 
d="M-167 848q0 20 11.5 31.5t27.5 11.5t27.5 -11.5t11.5 -31.5q0 -21 -11.5 -32.5t-27.5 -11.5q-15 0 -27 11.5t-12 32.5zM63 862q-22 -91 -69.5 -132.5t-120.5 -41.5q-71 0 -119.5 44t-79.5 129l48 17q24 -70 59.5 -107t93.5 -37q59 0 90 37t49 107z" />
    <glyph glyph-name="anusvaradeva" unicode="&#x902;" 
d="M-164 771q0 21 12 34.5t30 13.5q19 0 31 -14t12 -34q0 -22 -12.5 -35t-30.5 -13q-16 0 -29 13t-13 35z" />
    <glyph glyph-name="visargadeva" unicode="&#x903;" horiz-adv-x="251" 
d="M80 434q0 22 13.5 37.5t33.5 15.5t33.5 -15.5t13.5 -37.5t-14 -37t-33 -15t-33 15t-14 37zM80 118q0 22 13.5 37t33.5 15t33.5 -15t13.5 -37q0 -23 -14 -37.5t-33 -14.5t-33 15t-14 37z" />
    <glyph glyph-name="ashortdeva" unicode="&#x904;" horiz-adv-x="717" 
d="M438 218q0 -45 -20 -74t-52.5 -42.5t-71.5 -13.5q-54 0 -99.5 27t-86.5 86.5t-82 156.5l48 18q46 -116 97 -177.5t118 -61.5q41 0 68 20.5t27 66.5q0 41 -23.5 73.5t-60.5 60.5q-27 -5 -58 -6l-4 48q74 3 107 27.5t33 70.5q0 44 -26.5 65t-69.5 21q-36 0 -67 -10t-65 -28
l-17 48q32 16 67.5 27t79.5 11q72 0 111.5 -37t39.5 -97q0 -40 -19.5 -71.5t-58.5 -50.5q13 -11 26 -24q21 -3 42 -4.5t41 -1.5q28 0 53.5 3t53.5 11v214h-77v48h74q-17 72 -35.5 102t-58.5 30q-15 0 -28.5 -2t-27.5 -2q-33 0 -58.5 10t-45.5 38t-38 82l44 16
q13 -36 24.5 -57t28.5 -30.5t46 -9.5q13 0 29 2t34 2q32 0 57 -14t45 -53t35 -114h115v-48h-110v-574h-53v310q-25 -7 -49 -9.5t-50 -2.5q-29 0 -59 5q12 -19 19.5 -40t7.5 -45z" />
    <glyph glyph-name="adeva" unicode="&#x905;" horiz-adv-x="717" 
d="M438 218q0 -45 -20 -74t-52.5 -42.5t-71.5 -13.5q-54 0 -99.5 27t-86.5 86.5t-82 156.5l48 18q46 -116 97 -177.5t118 -61.5q41 0 68 20.5t27 66.5q0 41 -23.5 73.5t-60.5 60.5q-27 -5 -58 -6l-4 48q74 3 107 27.5t33 70.5q0 44 -26.5 65t-69.5 21q-36 0 -67 -10t-65 -28
l-17 48q32 16 67.5 27t79.5 11q72 0 111.5 -37t39.5 -97q0 -40 -19.5 -71.5t-58.5 -50.5q13 -11 26 -24q21 -3 42 -4.5t41 -1.5q28 0 53.5 3t53.5 11v214h-77v48h240v-48h-110v-574h-53v310q-25 -7 -49 -9.5t-50 -2.5q-29 0 -59 5q12 -19 19.5 -40t7.5 -45z" />
    <glyph glyph-name="aadeva" unicode="&#x906;" horiz-adv-x="959" 
d="M438 218q0 -45 -20 -74t-52.5 -42.5t-71.5 -13.5q-54 0 -99.5 27t-86.5 86.5t-82 156.5l48 18q46 -116 97 -177.5t118 -61.5q41 0 68 20.5t27 66.5q0 41 -23.5 73.5t-60.5 60.5q-27 -5 -58 -6l-4 48q74 3 107 27.5t33 70.5q0 44 -26.5 65t-69.5 21q-36 0 -67 -10t-65 -28
l-17 48q32 16 67.5 27t79.5 11q72 0 111.5 -37t39.5 -97q0 -40 -19.5 -71.5t-58.5 -50.5q13 -11 26 -24q21 -3 42 -4.5t41 -1.5q28 0 53.5 3t53.5 11v214h-77v48h482v-48h-110v-574h-53v574h-189v-574h-53v310q-25 -7 -49 -9.5t-50 -2.5q-29 0 -59 5q12 -19 19.5 -40
t7.5 -45z" />
    <glyph glyph-name="ideva" unicode="&#x907;" horiz-adv-x="482" 
d="M270 236q-30 0 -59 -6t-55 -20q-40 26 -70.5 60t-30.5 84q0 24 7 41t20 31q20 20 49 29t85 9h111v110h-327v48h496v-48h-116v-158h-172q-38 0 -56 -5t-29 -18q-15 -15 -15 -43t18 -50t38 -35q22 10 49.5 15.5t60.5 5.5q69 0 114.5 -37t45.5 -101q0 -71 -49.5 -107.5
t-131.5 -40.5q67 -32 143 -62l-22 -46q-111 53 -201 110q-50 3 -84.5 15t-34.5 41q0 16 10.5 28t32.5 12q38 0 90 -50q21 -2 39 -2q75 0 114.5 24.5t39.5 76.5q0 47 -31 68t-79 21z" />
    <glyph glyph-name="iideva" unicode="&#x908;" horiz-adv-x="482" 
d="M270 236q-30 0 -59 -6t-55 -20q-40 26 -70.5 60t-30.5 84q0 24 7 41t20 31q20 20 49 29t85 9h111v110h-327v48h496v-48h-116v-158h-172q-38 0 -56 -5t-29 -18q-15 -15 -15 -43t18 -50t38 -35q22 10 49.5 15.5t60.5 5.5q69 0 114.5 -37t45.5 -101q0 -71 -49.5 -107.5
t-131.5 -40.5q67 -32 143 -62l-22 -46q-111 53 -201 110q-50 3 -84.5 15t-34.5 41q0 16 10.5 28t32.5 12q38 0 90 -50q21 -2 39 -2q75 0 114.5 24.5t39.5 76.5q0 47 -31 68t-79 21zM311 615q-25 38 -41 75.5t-16 77.5q0 62 41 95t99 33q33 0 58.5 -7t45.5 -17l-16 -46
q-20 11 -39.5 16.5t-42.5 5.5q-46 0 -69.5 -25t-23.5 -65q0 -34 15.5 -67t44.5 -76h-56z" />
    <glyph glyph-name="udeva" unicode="&#x909;" horiz-adv-x="521" 
d="M0 622h536v-48h-134q48 -42 48 -103q0 -45 -22.5 -80.5t-67.5 -56.5q44 -35 75 -81t31 -109q0 -70 -44 -107t-111 -37q-55 0 -102.5 30t-92 99t-90.5 185l48 18q52 -138 106.5 -210t125.5 -72q44 0 74 21t30 79q0 47 -27 88t-78 79q-26 -5 -55 -6l-4 48q78 2 114 31
t36 80q0 35 -18 61.5t-48 42.5h-330v48z" />
    <glyph glyph-name="uudeva" unicode="&#x90a;" horiz-adv-x="726" 
d="M0 622h741v-48h-339q48 -42 48 -103q0 -45 -22.5 -80.5t-67.5 -56.5q16 -13 31 -27.5t28 -30.5q29 27 59.5 41.5t66.5 14.5q57 0 95 -36.5t38 -105.5q0 -51 -17.5 -97.5t-50.5 -92.5l-48 28q28 36 45.5 75t17.5 87q0 47 -23 71t-62 24q-26 0 -49.5 -13t-46.5 -36
q10 -20 16 -43t6 -49q0 -70 -44 -107t-111 -37q-55 0 -102.5 30t-92 99t-90.5 185l48 18q52 -138 106.5 -210t125.5 -72q44 0 74 21t30 79q0 47 -27 88t-78 79q-26 -5 -55 -6l-4 48q78 2 114 31t36 80q0 35 -18.5 61.5t-46.5 42.5h-331v48z" />
    <glyph glyph-name="rvocalicdeva" unicode="&#x90b;" horiz-adv-x="819" 
d="M116 83l-31 45l257 162q-36 46 -62 72t-50.5 36t-55.5 10q-30 0 -59 -8t-69 -28l-20 49q36 16 70.5 26.5t76.5 10.5q38 0 70 -12.5t63.5 -41.5t69.5 -80v250h-376v48h834v-48h-404v-247q39 2 77.5 7t65.5 13q-9 18 -9 40q0 25 16 38.5t38 13.5q30 0 48.5 -18t18.5 -45
q0 -24 -13.5 -38t-33.5 -21q13 -25 26.5 -46l26.5 -41l-9 -26q-96 -21 -96 -96q0 -46 29 -65t65 -19q32 0 56 7t58 25l17 -47q-29 -15 -60.5 -24t-66.5 -9q-68 0 -108 36.5t-40 97.5q0 41 23.5 75.5t70.5 52.5q-11 18 -21 36.5t-16 31.5q-31 -10 -77.5 -17.5t-85.5 -8.5
v-280h-54v256z" />
    <glyph glyph-name="lvocalicdeva" unicode="&#x90c;" horiz-adv-x="664" 
d="M401 32q0 48 32.5 85.5t99.5 52.5q12 24 20.5 51t8.5 61q0 51 -24 74.5t-64 23.5q-29 0 -56.5 -13.5t-52 -49t-43.5 -99.5l-52 16q17 58 43 100q-26 20 -51 32t-58 12q-48 0 -74.5 -28t-26.5 -72q0 -42 20.5 -78.5t63.5 -78t109 -97.5l-36 -35q-62 53 -109.5 99.5
t-74.5 93t-27 97.5q0 53 23.5 85.5t58.5 47.5t69 15q43 0 77 -15t66 -41q47 50 116 56v147h-459v48h680v-48h-168v-149q41 -9 72.5 -43t31.5 -100q0 -46 -13 -84.5t-29 -66.5q-62 -8 -92 -35t-30 -67q0 -46 29 -65t65 -19q32 0 56 7t58 25l16 -47q-28 -15 -60 -24t-66 -9
q-68 0 -108.5 36.5t-40.5 98.5z" />
    <glyph glyph-name="ecandradeva" unicode="&#x90d;" horiz-adv-x="528" 
d="M543 574h-100v-207q0 -47 -6.5 -74t-22.5 -49q-15 -21 -43.5 -34.5t-62.5 -17.5l-11 50q22 4 38.5 10.5t28.5 18.5q14 13 20 32t6 63v208h-252v-232q0 -45 3.5 -73.5t14 -47t29.5 -34t51 -35.5l96 -56q46 -27 72.5 -49t38.5 -45t12 -54q0 -38 -14.5 -68.5t-31.5 -55.5
l-47 28q14 21 26 44.5t12 48.5q0 21 -9.5 37.5t-34 36t-71.5 46.5l-89 53q-30 16 -56.5 40t-39.5 56q-8 18 -12 41t-4 64v255h-84v48h543v-48zM507 866q-22 -90 -69.5 -131.5t-120.5 -41.5q-71 0 -119.5 43.5t-79.5 129.5l48 16q25 -69 60 -105.5t93 -36.5q59 0 89.5 36
t48.5 108z" />
    <glyph glyph-name="eshortdeva" unicode="&#x90e;" horiz-adv-x="528" 
d="M543 574h-100v-207q0 -47 -6.5 -74t-22.5 -49q-15 -21 -43.5 -34.5t-62.5 -17.5l-11 50q22 4 38.5 10.5t28.5 18.5q14 13 20 32t6 63v208h-252v-232q0 -45 3.5 -73.5t14 -47t29.5 -34t51 -35.5l96 -56q46 -27 72.5 -49t38.5 -45t12 -54q0 -38 -14.5 -68.5t-31.5 -55.5
l-47 28q14 21 26 44.5t12 48.5q0 21 -9.5 37.5t-34 36t-71.5 46.5l-89 53q-30 16 -56.5 40t-39.5 56q-8 18 -12 41t-4 64v255h-84v48h543v-48zM389 615q-18 76 -36.5 107.5t-59.5 31.5q-15 0 -28.5 -2t-28.5 -2q-32 0 -57 10t-45.5 38t-39.5 82l46 16q12 -36 23.5 -57
t28.5 -30.5t46 -9.5q14 0 30 2t32 2q32 0 57.5 -14.5t46 -54.5t36.5 -119h-51z" />
    <glyph glyph-name="edeva" unicode="&#x90f;" horiz-adv-x="528" 
d="M543 574h-100v-207q0 -47 -6.5 -74t-22.5 -49q-15 -21 -43.5 -34.5t-62.5 -17.5l-11 50q22 4 38.5 10.5t28.5 18.5q14 13 20 32t6 63v208h-252v-232q0 -45 3.5 -73.5t14 -47t29.5 -34t51 -35.5l96 -56q46 -27 72.5 -49t38.5 -45t12 -54q0 -38 -14.5 -68.5t-31.5 -55.5
l-47 28q14 21 26 44.5t12 48.5q0 21 -9.5 37.5t-34 36t-71.5 46.5l-89 53q-30 16 -56.5 40t-39.5 56q-8 18 -12 41t-4 64v255h-84v48h543v-48z" />
    <glyph glyph-name="aideva" unicode="&#x910;" horiz-adv-x="528" 
d="M543 574h-100v-207q0 -47 -6.5 -74t-22.5 -49q-15 -21 -43.5 -34.5t-62.5 -17.5l-11 50q22 4 38.5 10.5t28.5 18.5q14 13 20 32t6 63v208h-252v-232q0 -45 3.5 -73.5t14 -47t29.5 -34t51 -35.5l96 -56q46 -27 72.5 -49t38.5 -45t12 -54q0 -38 -14.5 -68.5t-31.5 -55.5
l-47 28q14 21 26 44.5t12 48.5q0 21 -9.5 37.5t-34 36t-71.5 46.5l-89 53q-30 16 -56.5 40t-39.5 56q-8 18 -12 41t-4 64v255h-84v48h543v-48zM390 615q-23 91 -45.5 141t-48.5 70t-60 20q-22 0 -41.5 -4t-34.5 -10l-16 49q20 7 41 11t49 4q53 0 89.5 -29t63.5 -91t53 -161
h-50z" />
    <glyph glyph-name="ocandradeva" unicode="&#x911;" horiz-adv-x="959" 
d="M438 218q0 -45 -20 -74t-52.5 -42.5t-71.5 -13.5q-54 0 -99.5 27t-86.5 86.5t-82 156.5l48 18q46 -116 97 -177.5t118 -61.5q41 0 68 20.5t27 66.5q0 41 -23.5 73.5t-60.5 60.5q-27 -5 -58 -6l-4 48q74 3 107 27.5t33 70.5q0 44 -26.5 65t-69.5 21q-36 0 -67 -10t-65 -28
l-17 48q32 16 67.5 27t79.5 11q72 0 111.5 -37t39.5 -97q0 -40 -19.5 -71.5t-58.5 -50.5q13 -11 26 -24q21 -3 42 -4.5t41 -1.5q28 0 53.5 3t53.5 11v214h-77v48h482v-48h-110v-574h-53v574h-189v-574h-53v310q-25 -7 -49 -9.5t-50 -2.5q-29 0 -59 5q12 -19 19.5 -40
t7.5 -45zM991 866q-22 -90 -69.5 -131.5t-120.5 -41.5q-71 0 -119.5 43.5t-79.5 129.5l48 16q25 -69 60 -105.5t93 -36.5q59 0 89.5 36t48.5 108z" />
    <glyph glyph-name="oshortdeva" unicode="&#x912;" horiz-adv-x="959" 
d="M438 218q0 -45 -20 -74t-52.5 -42.5t-71.5 -13.5q-54 0 -99.5 27t-86.5 86.5t-82 156.5l48 18q46 -116 97 -177.5t118 -61.5q41 0 68 20.5t27 66.5q0 41 -23.5 73.5t-60.5 60.5q-27 -5 -58 -6l-4 48q74 3 107 27.5t33 70.5q0 44 -26.5 65t-69.5 21q-36 0 -67 -10t-65 -28
l-17 48q32 16 67.5 27t79.5 11q72 0 111.5 -37t39.5 -97q0 -40 -19.5 -71.5t-58.5 -50.5q13 -11 26 -24q21 -3 42 -4.5t41 -1.5q28 0 53.5 3t53.5 11v214h-77v48h482v-48h-110v-574h-53v574h-189v-574h-53v310q-25 -7 -49 -9.5t-50 -2.5q-29 0 -59 5q12 -19 19.5 -40
t7.5 -45zM810 615q-18 76 -36.5 107.5t-59.5 31.5q-15 0 -28.5 -2t-28.5 -2q-32 0 -57 10t-45.5 38t-39.5 82l46 16q12 -36 23.5 -57t28.5 -30.5t46 -9.5q14 0 30 2t32 2q32 0 57.5 -14.5t46 -54.5t36.5 -119h-51z" />
    <glyph glyph-name="odeva" unicode="&#x913;" horiz-adv-x="959" 
d="M438 218q0 -45 -20 -74t-52.5 -42.5t-71.5 -13.5q-54 0 -99.5 27t-86.5 86.5t-82 156.5l48 18q46 -116 97 -177.5t118 -61.5q41 0 68 20.5t27 66.5q0 41 -23.5 73.5t-60.5 60.5q-27 -5 -58 -6l-4 48q74 3 107 27.5t33 70.5q0 44 -26.5 65t-69.5 21q-36 0 -67 -10t-65 -28
l-17 48q32 16 67.5 27t79.5 11q72 0 111.5 -37t39.5 -97q0 -40 -19.5 -71.5t-58.5 -50.5q13 -11 26 -24q21 -3 42 -4.5t41 -1.5q28 0 53.5 3t53.5 11v214h-77v48h482v-48h-110v-574h-53v574h-189v-574h-53v310q-25 -7 -49 -9.5t-50 -2.5q-29 0 -59 5q12 -19 19.5 -40
t7.5 -45zM811 615q-23 91 -45.5 141t-48.5 70t-60 20q-22 0 -41.5 -4t-34.5 -10l-16 49q20 7 41 11t49 4q53 0 89.5 -29t63.5 -91t53 -161h-50z" />
    <glyph glyph-name="audeva" unicode="&#x914;" horiz-adv-x="959" 
d="M438 218q0 -45 -20 -74t-52.5 -42.5t-71.5 -13.5q-54 0 -99.5 27t-86.5 86.5t-82 156.5l48 18q46 -116 97 -177.5t118 -61.5q41 0 68 20.5t27 66.5q0 41 -23.5 73.5t-60.5 60.5q-27 -5 -58 -6l-4 48q74 3 107 27.5t33 70.5q0 44 -26.5 65t-69.5 21q-36 0 -67 -10t-65 -28
l-17 48q32 16 67.5 27t79.5 11q72 0 111.5 -37t39.5 -97q0 -40 -19.5 -71.5t-58.5 -50.5q13 -11 26 -24q21 -3 42 -4.5t41 -1.5q28 0 53.5 3t53.5 11v214h-77v48h482v-48h-110v-574h-53v574h-189v-574h-53v310q-25 -7 -49 -9.5t-50 -2.5q-29 0 -59 5q12 -19 19.5 -40
t7.5 -45zM805 615q-28 46 -52.5 69t-49 30.5t-52.5 7.5q-21 0 -41.5 -5.5t-40.5 -14.5l-18 47q21 9 45 15t52 6q48 0 84 -22t63 -66l3 2q-21 61 -41.5 97t-44 51.5t-55.5 15.5q-24 0 -42.5 -4t-33.5 -10l-16 47q20 7 41 11t49 4q53 0 89.5 -29t63.5 -91t53 -161h-56z" />
    <glyph glyph-name="kadeva" unicode="&#x915;" horiz-adv-x="720" 
d="M734 574h-319v-242q27 33 57.5 49.5t66.5 16.5q56 0 93.5 -38t37.5 -112q0 -52 -17.5 -102.5t-50.5 -99.5l-48 29q28 38 45 81t17 92q0 102 -83 102q-28 0 -57.5 -19.5t-60.5 -64.5v-266h-53v208q-26 -28 -61.5 -49t-88.5 -21q-44 0 -81 18.5t-59 55t-22 91.5
q0 78 51 122.5t133 44.5q24 0 50.5 -3.5t42.5 -6.5l-5 -50q-37 10 -85 10q-62 0 -97.5 -30t-35.5 -86q0 -62 32 -90t78 -28q81 0 148 84v304h-362v48h734v-48z" />
    <glyph glyph-name="khadeva" unicode="&#x916;" horiz-adv-x="775" 
d="M680 574v-574h-53v52q-35 -20 -76 -29.5t-85 -9.5q-111 0 -204 57.5t-180 181.5q-21 30 -28.5 51t-7.5 37q0 20 13 32.5t37 12.5t41 -12t32 -36q28 20 40 53.5t12 72.5q0 28 -6 58t-18 53h-197v48h790v-48h-110zM509 222q39 0 68.5 14t49.5 34v304h-376
q10 -20 16.5 -49.5t6.5 -62.5q0 -80 -36 -128t-103 -72q72 -100 151 -150.5t179 -50.5q91 0 162 45v106q-21 -16 -53 -27t-72 -11q-66 0 -111 41t-45 111q0 74 48.5 113t119.5 39q18 0 41 -2.5t37 -5.5l-5 -48q-15 4 -32 6.5t-37 2.5q-53 0 -85.5 -27.5t-32.5 -79.5t31 -77
t78 -25z" />
    <glyph glyph-name="gadeva" unicode="&#x917;" horiz-adv-x="534" 
d="M182 574v-315q0 -23 -11 -35t-27 -12q-21 0 -42.5 16.5t-36.5 40t-15 45.5q0 19 12 30.5t41 11.5h25v218h-128v48h548v-48h-109v-574h-53v574h-204z" />
    <glyph glyph-name="ghadeva" unicode="&#x918;" horiz-adv-x="560" 
d="M574 574h-108v-574h-54v196q-27 -21 -65.5 -39.5t-94.5 -18.5q-70 0 -115.5 37t-45.5 105q0 29 12 56.5t37 47.5q-42 16 -67.5 49t-25.5 77q0 20 4.5 35.5t12.5 28.5h-64v48h574v-48zM145 282q0 -52 31.5 -74t79.5 -22q51 0 90 21.5t66 53.5v313h-286q-11 -12 -18.5 -28
t-7.5 -36q0 -42 27 -65t68 -28q30 9 65 9q10 0 22 -1t19 -1l-5 -48q-8 0 -16.5 0.5t-15.5 0.5q-50 0 -84.5 -23t-34.5 -72z" />
    <glyph glyph-name="ngadeva" unicode="&#x919;" horiz-adv-x="612" 
d="M353 236q-31 0 -60.5 -6t-55.5 -20q-40 25 -70.5 60t-30.5 86q0 45 28 70q20 20 49 29t83 9h110v110h-406v48h626v-48h-166v-158h-172q-35 0 -53.5 -5t-30.5 -17q-14 -14 -14 -42q0 -29 18 -51.5t37 -35.5q23 10 50 15.5t60 5.5q71 0 116 -38t45 -102q0 -63 -47 -104.5
t-141 -41.5q-98 0 -171 43.5t-129 111.5l41 33q57 -72 120.5 -105t138.5 -33q68 0 101 26t33 70q0 46 -31 68t-78 22zM492 348q0 21 12 34t30 13t29.5 -13t11.5 -34t-12 -33.5t-29 -12.5q-16 0 -29 13t-13 33z" />
    <glyph glyph-name="cadeva" unicode="&#x91a;" horiz-adv-x="596" 
d="M612 574h-110v-574h-53v192q-23 -18 -59.5 -36t-88.5 -18q-73 0 -116.5 40t-43.5 108q0 72 64 108l-167 -2v50h340l-4 -48h-36q-64 0 -104 -27.5t-40 -81.5q0 -53 33 -76t75 -23q49 0 85.5 21.5t61.5 47.5v319h-449v48h612v-48z" />
    <glyph glyph-name="chadeva" unicode="&#x91b;" horiz-adv-x="683" 
d="M284 48q88 0 154 37t103.5 98t37.5 133q0 56 -26.5 91.5t-73.5 35.5q-41 0 -61 -22.5t-20 -54.5q0 -39 32 -70t100 -46l-22 -44q-84 22 -123 65t-39 95q0 48 29 81t81 40v87h-456v48h698v-48h-190v-88q52 -9 88 -52t36 -120q0 -59 -24 -115t-69 -101t-109 -71.5
t-144 -26.5q-87 0 -134 39t-47 102q0 27 10 51.5t31 42.5q-46 19 -72 52.5t-26 77.5q0 61 43 92t107 31q21 0 43.5 -3t36.5 -7l-4 -48q-15 4 -33 7.5t-39 3.5q-100 0 -100 -81q0 -38 28 -59.5t68 -31.5q27 9 60 9q10 0 20.5 -0.5t17.5 -1.5l-4 -48q-6 1 -14 1.5t-16 0.5
q-46 0 -74.5 -22t-28.5 -66q0 -48 34.5 -71t90.5 -23z" />
    <glyph glyph-name="jadeva" unicode="&#x91c;" horiz-adv-x="701" 
d="M606 574v-574h-53v392h-163q-18 0 -33.5 0.5t-27.5 1.5q44 -34 70.5 -78t26.5 -97q0 -43 -18.5 -72t-48.5 -43t-65 -14q-51 0 -96 30t-87.5 99t-83.5 187l48 16q49 -142 101.5 -212t114.5 -70q38 0 60.5 21t22.5 63q0 54 -34.5 97t-85.5 77l20 43h279v133h-553v48h716
v-48h-110z" />
    <glyph glyph-name="jhadeva" unicode="&#x91d;" horiz-adv-x="721" 
d="M270 236q-30 0 -59 -6t-55 -20q-40 26 -70.5 61t-30.5 85q0 24 7 41t20 29q20 20 48 29t84 9h113v110h-327v48h736v-48h-110v-574h-53v227q-25 -7 -49.5 -10t-53.5 -3q-28 0 -55 4q19 -31 19 -70q0 -71 -49.5 -107.5t-131.5 -40.5q67 -32 143 -62l-22 -46
q-111 53 -201 110q-50 3 -84.5 15t-34.5 41q0 16 10.5 28t32.5 12q38 0 90 -50q20 -2 37 -2q156 0 156 101q0 47 -31 68t-79 21zM467 262q55 0 106 15v297h-193v-158h-172q-38 0 -56 -5t-29 -17q-15 -15 -15 -42q0 -29 18 -51.5t38 -35.5q22 10 49.5 15.5t60.5 5.5
q38 0 70 -12q27 -6 56 -9t67 -3z" />
    <glyph glyph-name="nyadeva" unicode="&#x91e;" horiz-adv-x="701" 
d="M182 422q59 28 119 28q64 0 107.5 -34t49.5 -99q6 -1 12 -1q25 0 45.5 5.5t37.5 15.5v237h-553v48h716v-48h-110v-574h-53v282q-18 -7 -39.5 -10.5t-47.5 -3.5h-9q-7 -47 -33.5 -76t-63.5 -41.5t-76 -12.5q-82 0 -145.5 50.5t-112.5 161.5l48 18q41 -96 89.5 -138
t116.5 -42q64 0 96 30t32 80q0 54 -31 78.5t-77 24.5q-28 0 -51 -7.5t-49 -19.5z" />
    <glyph glyph-name="ttadeva" unicode="&#x91f;" horiz-adv-x="489" 
d="M504 574h-158v-202h-36q-52 0 -87 -9t-61 -29q-58 -41 -58 -117q0 -55 23 -92.5t62.5 -56t88.5 -18.5q52 0 89 11t81 33l18 -49q-42 -20 -88.5 -32.5t-98.5 -12.5q-67 0 -118.5 26t-81 75t-29.5 119q0 64 32.5 109t87.5 68.5t122 23.5v153h-292v48h504v-48z" />
    <glyph glyph-name="tthadeva" unicode="&#x920;" horiz-adv-x="567" 
d="M582 574h-236v-157q85 -33 128 -90t43 -128q0 -69 -31.5 -113t-83.5 -65t-116 -21q-70 0 -123 26t-83 74.5t-30 117.5q0 66 33 111t88 68.5t121 23.5v153h-292v48h582v-48zM284 49q51 0 91.5 16t64.5 49.5t24 85.5q0 54 -34.5 100t-101.5 72h-22q-47 0 -81.5 -9
t-60.5 -27q-28 -20 -44 -51t-16 -73q0 -80 50 -121.5t130 -41.5z" />
    <glyph glyph-name="ddadeva" unicode="&#x921;" horiz-adv-x="562" 
d="M353 236q-31 0 -60.5 -6t-55.5 -20q-40 26 -70.5 61t-30.5 85q0 45 28 70q20 20 49 29t83 9h110v110h-406v48h578v-48h-118v-158h-172q-35 0 -53.5 -5t-30.5 -17q-14 -14 -14 -42q0 -30 18 -52t37 -35q23 10 50 15.5t60 5.5q71 0 116 -38t45 -102q0 -62 -47 -104
t-141 -42q-98 0 -171 43.5t-129 111.5l41 33q57 -72 120.5 -105t138.5 -33q68 0 101 26t33 70q0 46 -31 68t-78 22z" />
    <glyph glyph-name="ddhadeva" unicode="&#x922;" horiz-adv-x="541" 
d="M296 0q-72 0 -127.5 27t-87 78.5t-31.5 124.5q0 68 34.5 115.5t93 72.5t130.5 26h10v130h-318v48h556v-48h-186v-179h-38q-62 0 -99.5 -9.5t-64.5 -29.5q-64 -47 -64 -132q0 -75 41 -119t109 -56q-11 25 -16.5 48.5t-5.5 50.5q0 52 34 90t100 38q64 0 97 -36.5t33 -88.5
q0 -67 -54 -109t-146 -42zM282 140q0 -50 24 -93q64 1 101 29.5t37 74.5q0 37 -20 57.5t-56 20.5q-40 0 -63 -24.5t-23 -64.5z" />
    <glyph glyph-name="nnadeva" unicode="&#x923;" horiz-adv-x="686" 
d="M592 574v-574h-54v574h-144v-242q0 -46 -10 -78t-34 -54q-19 -18 -46 -28t-64 -10q-70 0 -108 40q-48 42 -48 146v226h-84v48h701v-48h-109zM238 211q48 0 72 25q20 18 25 47t5 73v218h-202v-218q0 -44 6 -73t26 -46q10 -12 27 -19t41 -7z" />
    <glyph glyph-name="tadeva" unicode="&#x924;" horiz-adv-x="540" 
d="M445 574v-574h-53v345h-118q-58 0 -91.5 -7t-53.5 -26q-11 -10 -19 -26.5t-8 -42.5q0 -57 41 -105t115 -112l-36 -35q-47 41 -86.5 81t-63.5 83t-24 92q0 30 12 58.5t38 47.5q26 20 63.5 30.5t106.5 10.5h124v180h-392v48h554v-48h-109z" />
    <glyph glyph-name="thadeva" unicode="&#x925;" horiz-adv-x="606" 
d="M512 574v-574h-54v203q-27 -21 -67 -38t-95 -17q-78 0 -132 43t-78 133q88 17 129 52.5t41 97.5q0 53 -26.5 83t-71.5 30q-30 0 -47.5 -15.5t-17.5 -40.5q0 -31 22.5 -49t84.5 -23l-5 -48q-71 7 -110 35t-39 84q0 50 33.5 76t81.5 26q37 0 71.5 -17.5t56 -52t21.5 -86.5
q0 -78 -44 -121t-115 -64q26 -50 59.5 -72.5t89.5 -22.5q49 0 87.5 19t70.5 51v308h-94v48h257v-48h-109z" />
    <glyph glyph-name="dadeva" unicode="&#x926;" horiz-adv-x="494" 
d="M410 -51q-20 32 -41 70t-34 66q-26 -5 -59 -5q-39 0 -79 10t-73.5 33t-53.5 60.5t-20 92.5q0 44 15 75t39 52q32 28 80 41t108 13h4v117h-296v48h509v-48h-159v-166h-38q-111 0 -159 -34q-49 -35 -49 -102q0 -64 43 -103.5t129 -39.5q9 0 18 0.5t19 1.5q-8 19 -8 37
q0 26 16.5 39.5t39.5 13.5q32 0 51.5 -19.5t19.5 -45.5t-13.5 -40.5t-36.5 -21.5q14 -29 31.5 -58.5t41.5 -63.5z" />
    <glyph glyph-name="dhadeva" unicode="&#x927;" horiz-adv-x="578" 
d="M592 574h-109v-574h-53v171q-28 -22 -66 -39.5t-96 -17.5q-71 0 -117 37t-46 104q0 29 11 55.5t35 46.5q-51 17 -81.5 52t-30.5 91q0 58 39 95t96 37q48 0 80 -26t32 -70q0 -46 -36 -85l-41 27q23 23 23 55q0 19 -13.5 36.5t-46.5 17.5q-36 0 -59.5 -25.5t-23.5 -65.5
q0 -51 34 -74.5t84 -30.5q31 10 67 10q10 0 21 -0.5t19 -2.5l-4 -48q-8 2 -17 2h-15q-50 0 -85 -23t-35 -72q0 -52 32 -73.5t82 -21.5q52 0 91 21.5t67 52.5v338h-72v48h234v-48z" />
    <glyph glyph-name="nadeva" unicode="&#x928;" horiz-adv-x="521" 
d="M0 622h536v-48h-110v-574h-53v318h-199v-48q0 -24 -11 -35.5t-29 -11.5q-20 0 -41.5 17t-36 40.5t-14.5 45.5q0 18 12 29.5t40 11.5h279v207h-373v48z" />
    <glyph glyph-name="nnnadeva" unicode="&#x929;" horiz-adv-x="521" 
d="M0 622h536v-48h-110v-574h-53v318h-199v-48q0 -24 -11 -35.5t-29 -11.5q-20 0 -41.5 17t-36 40.5t-14.5 45.5q0 18 12 29.5t40 11.5h279v207h-373v48zM134 32q0 21 12 34.5t30 13.5q20 0 31.5 -13.5t11.5 -34.5q0 -22 -12.5 -35t-30.5 -13q-16 0 -29 13t-13 35z" />
    <glyph glyph-name="padeva" unicode="&#x92a;" horiz-adv-x="548" 
d="M453 574v-574h-53v220q-27 -20 -64 -37t-86 -17q-76 0 -118 44q-24 25 -35 61t-11 100v203h-86v48h562v-48h-109zM400 574h-261v-189q0 -66 8 -95.5t24 -46.5q14 -16 35.5 -22.5t47.5 -6.5q43 0 80 19t66 49v292z" />
    <glyph glyph-name="phadeva" unicode="&#x92b;" horiz-adv-x="737" 
d="M432 574v-240q26 30 55.5 47t68.5 17q57 0 94.5 -38t37.5 -112q0 -52 -18 -102.5t-50 -99.5l-48 29q27 38 44.5 81t17.5 92q0 50 -22 76t-62 26q-28 0 -57 -19.5t-61 -62.5v-268h-54v220q-23 -22 -56.5 -38t-79.5 -16q-75 0 -113 46q-23 26 -33 62t-10 96v204h-86v48h752
v-48h-320zM139 574v-196q0 -61 7 -89.5t23 -45.5q11 -13 29 -21t44 -8q41 0 73.5 17t62.5 51v292h-239z" />
    <glyph glyph-name="badeva" unicode="&#x92c;" horiz-adv-x="538" 
d="M552 574h-109v-574h-53v195q-27 -21 -66 -39t-96 -18q-78 0 -128 42.5t-50 119.5q0 81 55 125.5t147 44.5q28 0 57 -3t45 -7l-5 -48q-19 4 -42.5 7t-54.5 3q-35 0 -63 -8l159 -192q22 16 42 37v315h-390v48h552v-48zM104 300q0 -60 35.5 -88t89.5 -28q22 0 42 4.5
t38 12.5l-160 194q-45 -31 -45 -95z" />
    <glyph glyph-name="bhadeva" unicode="&#x92d;" horiz-adv-x="664" 
d="M162 632q30 0 57 -10.5t46 -33.5q17 -20 27.5 -52.5t10.5 -96.5v-121h213v256h-147v48h309v-48h-108v-574h-54v269h-213v-35q0 -27 -11.5 -39t-29.5 -12q-20 0 -41.5 16.5t-36 39.5t-14.5 43q0 15 11 25.5t38 10.5h31v110q0 52 -6 79.5t-16 44.5q-14 20 -31.5 27.5
t-39.5 7.5q-31 0 -47.5 -16t-16.5 -40q0 -32 25 -50.5t94 -22.5l-6 -48q-75 6 -117.5 34t-42.5 86q0 52 34 77t82 25z" />
    <glyph glyph-name="madeva" unicode="&#x92e;" horiz-adv-x="564" 
d="M470 574v-574h-54v269h-236v-35q0 -27 -11.5 -39t-28.5 -12q-20 0 -41.5 16.5t-36 39.5t-14.5 43q0 15 10.5 25.5t38.5 10.5h30v256h-127v48h578v-48h-108zM416 574h-236v-256h236v256z" />
    <glyph glyph-name="yadeva" unicode="&#x92f;" horiz-adv-x="552" 
d="M568 622v-48h-110v-574h-54v202q-27 -21 -65.5 -37.5t-88.5 -16.5q-86 0 -136 52.5t-72 150.5q63 14 91.5 41t28.5 75q0 33 -12.5 59.5t-32.5 47.5h-117v48h568zM105 316q21 -58 55 -89t94 -31q47 0 84 20t66 51v307h-224q16 -25 26 -54t10 -60q0 -56 -29 -91t-82 -53z
" />
    <glyph glyph-name="radeva" unicode="&#x930;" horiz-adv-x="388" 
d="M368 24l-35 -36q-59 51 -109.5 102.5t-88.5 96.5t-59 77q-18 27 -24 44t-6 32q0 19 13 32t37 13t41 -12t31 -35q41 21 64.5 55.5t23.5 82.5q0 32 -7.5 57.5t-16.5 40.5h-232v48h403v-48h-116q9 -19 15 -46.5t6 -57.5q0 -58 -24.5 -96.5t-64 -64.5t-84.5 -45
q46 -59 108 -123t125 -117z" />
    <glyph glyph-name="rradeva" unicode="&#x931;" horiz-adv-x="388" 
d="M368 24l-35 -36q-59 51 -109.5 102.5t-88.5 96.5t-59 77q-18 27 -24 44t-6 32q0 19 13 32t37 13t41 -12t31 -35q41 21 64.5 55.5t23.5 82.5q0 32 -7.5 57.5t-16.5 40.5h-232v48h403v-48h-116q9 -19 15 -46.5t6 -57.5q0 -58 -24.5 -96.5t-64 -64.5t-84.5 -45
q46 -59 108 -123t125 -117zM66 32q0 21 12 34.5t30 13.5q20 0 31.5 -13.5t11.5 -34.5q0 -22 -12.5 -35t-30.5 -13q-17 0 -29.5 13t-12.5 35z" />
    <glyph glyph-name="ladeva" unicode="&#x932;" horiz-adv-x="642" 
d="M0 574v48h657v-48h-109v-574h-54v378q-9 2 -20 2q-29 0 -56.5 -13.5t-52 -49t-43.5 -99.5l-52 16q17 59 43 100q-26 20 -51 32t-58 12q-48 0 -74.5 -28t-26.5 -72q0 -42 20.5 -78.5t63.5 -78t109 -97.5l-36 -35q-62 53 -109.5 99.5t-74.5 93t-27 97.5q0 53 23.5 85.5
t58.5 47.5t69 15q43 0 77 -15t65 -40q54 56 134 56q9 0 18 -1v147h-494z" />
    <glyph glyph-name="lladeva" unicode="&#x933;" horiz-adv-x="738" 
d="M0 574v48h752v-48h-181v-135q50 -12 83.5 -57t33.5 -122q0 -52 -20.5 -93t-58 -65t-89.5 -24q-50 0 -91 21t-81 62q-30 -49 -65 -66t-77 -17t-77.5 20.5t-57 61.5t-21.5 102q0 54 21 95t59 64t88 23q49 0 90 -20.5t81 -61.5q28 44 59 62t70 20v130h-518zM381 226
q-5 -12 -10 -22q36 -39 69.5 -58.5t73.5 -19.5q50 0 85 33.5t35 102.5q0 70 -31 102t-73 32q-40 0 -69 -25t-55 -87zM104 260q0 -70 30 -102t74 -32q40 0 69 26t55 88l24 57q5 12 10 22q-36 38 -69 57.5t-74 19.5q-49 0 -84 -33.5t-35 -102.5z" />
    <glyph glyph-name="llladeva" unicode="&#x934;" horiz-adv-x="738" 
d="M0 574v48h752v-48h-181v-135q50 -12 83.5 -57t33.5 -122q0 -52 -20.5 -93t-58 -65t-89.5 -24q-50 0 -91 21t-81 62q-30 -49 -65 -66t-77 -17t-77.5 20.5t-57 61.5t-21.5 102q0 54 21 95t59 64t88 23q49 0 90 -20.5t81 -61.5q28 44 59 62t70 20v130h-518zM381 226
q-5 -12 -10 -22q36 -39 69.5 -58.5t73.5 -19.5q50 0 85 33.5t35 102.5q0 70 -31 102t-73 32q-40 0 -69 -25t-55 -87zM104 260q0 -70 30 -102t74 -32q40 0 69 26t55 88l24 57q5 12 10 22q-36 38 -69 57.5t-74 19.5q-49 0 -84 -33.5t-35 -102.5zM157 -72q0 21 12 34.5t30 13.5
q20 0 31.5 -13.5t11.5 -34.5q0 -22 -12.5 -35t-30.5 -13q-16 0 -29 13t-13 35z" />
    <glyph glyph-name="vadeva" unicode="&#x935;" horiz-adv-x="525" 
d="M540 574h-110v-574h-52v195q-26 -22 -64 -39.5t-93 -17.5q-73 0 -122 42.5t-49 119.5q0 81 53 125.5t141 44.5q27 0 54.5 -3t43.5 -7l-4 -50q-19 4 -41.5 7t-52.5 3q-66 0 -103 -31t-37 -89q0 -59 34.5 -86.5t84.5 -27.5q49 0 88 21.5t67 52.5v314h-378v48h540v-48z" />
    <glyph glyph-name="shadeva" unicode="&#x936;" horiz-adv-x="641" 
d="M116 198q-36 0 -55.5 15t-19.5 38t14.5 34t36.5 11q20 0 39.5 -8t46.5 -29q53 18 87.5 66t34.5 119q0 67 -31 104.5t-83 37.5q-36 0 -53 -18t-17 -46q0 -17 10 -37.5t41.5 -35.5t94.5 -16l-12 -48q-88 3 -136 41t-48 98q0 48 33 78t91 30q44 0 81 -21.5t60 -64t23 -105.5
q0 -72 -36.5 -131t-98.5 -89q44 -39 89 -92t80 -101l-42 -30q-54 75 -96.5 123.5t-80.5 82.5q-26 -6 -53 -6zM546 574v-574h-53v574h-97v48h260v-48h-110z" />
    <glyph glyph-name="ssadeva" unicode="&#x937;" horiz-adv-x="554" 
d="M570 622v-48h-110v-574h-54v220q-29 -21 -66.5 -37.5t-87.5 -16.5q-78 0 -120 44q-24 26 -35 61.5t-11 99.5v203h-86v48h570zM406 574h-234l234 -291v291zM170 243q15 -16 36.5 -22.5t47.5 -6.5q34 0 63.5 11.5t53.5 28.5l-233 292v-161q0 -66 8 -95.5t24 -46.5z" />
    <glyph glyph-name="sadeva" unicode="&#x938;" horiz-adv-x="636" 
d="M542 574v-574h-54v284q-31 -9 -62 -13.5t-73 -4.5q-39 0 -83.5 6.5t-78.5 18.5q-24 -16 -55 -28q44 -59 102 -122t120 -117l-37 -36q-57 53 -105 104.5t-84 95.5t-57 76q-17 27 -23 44t-6 32q0 19 13 32t37 13t41.5 -12.5t32.5 -36.5q28 21 39.5 54.5t11.5 72.5
q0 31 -6.5 60.5t-16.5 50.5h-198v48h651v-48h-109zM347 314q77 0 141 19v241h-237q10 -19 16.5 -48.5t6.5 -63.5q0 -45 -11.5 -78t-33.5 -56q25 -6 55 -10t63 -4z" />
    <glyph glyph-name="hadeva" unicode="&#x939;" horiz-adv-x="510" 
d="M314 54q39 11 64.5 33t25.5 63q0 44 -30.5 71t-101.5 27q-76 0 -115.5 -33t-39.5 -89q0 -32 12.5 -62t48.5 -69t109 -97l-35 -36q-94 76 -141 136.5t-47 129.5q0 41 16.5 72t44.5 52q-21 19 -36 44t-15 60q0 45 28 70q20 20 48 29t78 9h134v110h-362v48h526v-48h-110
v-158h-190q-35 0 -53.5 -5t-30.5 -17q-14 -14 -14 -42q0 -24 12.5 -42.5t29.5 -32.5q47 19 104 19q65 0 105 -20.5t58.5 -53t18.5 -69.5q0 -58 -32 -92.5t-92 -52.5z" />
    <glyph glyph-name="oevowelsigndeva" unicode="&#x93a;" 
d="M-148 615v190h54v-190h-54z" />
    <glyph glyph-name="ooevowelsigndeva" unicode="&#x93b;" horiz-adv-x="242" 
d="M148 574v-574h-54v574h-94v48h256v-48h-108zM94 615v190h54v-190h-54z" />
    <glyph glyph-name="nuktadeva" unicode="&#x93c;" 
d="M-326 -134q0 21 12 34.5t30 13.5q20 0 31.5 -13.5t11.5 -34.5q0 -22 -12.5 -35t-30.5 -13q-16 0 -29 13t-13 35z" />
    <glyph glyph-name="avagrahadeva" unicode="&#x93d;" horiz-adv-x="446" 
d="M396 186q0 -68 -41 -105t-103 -37q-44 0 -80.5 16.5t-71.5 55t-74 106.5l46 24q39 -69 78.5 -110.5t95.5 -41.5q44 0 70 23t26 69q0 30 -10.5 54.5t-36 50.5t-68.5 61q-46 38 -70 65t-32.5 50t-8.5 47q0 26 10 45.5t28 33.5q19 15 47.5 22t82.5 7h94v-48h-103
q-40 0 -56.5 -4t-27.5 -12q-21 -15 -21 -46q0 -20 9.5 -38t32.5 -40.5t64 -56.5q48 -39 74 -70t36 -60t10 -61z" />
    <glyph glyph-name="aavowelsigndeva" unicode="&#x93e;" horiz-adv-x="242" 
d="M148 574v-574h-54v574h-94v48h256v-48h-108z" />
    <glyph glyph-name="ivowelsigndeva" unicode="&#x93f;" horiz-adv-x="242" 
d="M94 574h-94v48h86q-12 23 -21 49.5t-9 59.5q0 49 25 86t69 58t102 21q88 0 160.5 -35t133 -98t111.5 -148h-57q-80 119 -162 175.5t-177 56.5q-68 0 -109.5 -33t-41.5 -91q0 -32 10.5 -57t22.5 -44h113v-48h-108v-574h-54v574z" />
    <glyph glyph-name="iivowelsigndeva" unicode="&#x940;" horiz-adv-x="242" 
d="M-160 615q-16 34 -27 69t-11 73q0 59 35 99t101 40q55 0 91.5 -30t62.5 -91t50 -153h114v-48h-108v-574h-54v574h-94v48h91q-21 84 -42.5 133.5t-47 71t-60.5 21.5q-43 0 -64 -27.5t-21 -71.5q0 -40 11 -71t27 -63h-54z" />
    <glyph glyph-name="uvowelsigndeva" unicode="&#x941;" 
d="M-234 -17q25 11 51.5 17.5t55.5 6.5q67 0 106.5 -36t39.5 -99q0 -58 -43 -96t-124 -38q-96 0 -163 45t-121 117l41 29q53 -71 109 -106t133 -35q59 0 88.5 23t29.5 65q0 45 -29.5 64.5t-63.5 19.5q-27 0 -48.5 -5.5t-43.5 -16.5z" />
    <glyph glyph-name="uuvowelsigndeva" unicode="&#x942;" 
d="M-53 -238q-24 -10 -50.5 -17t-55.5 -7q-67 0 -107 37t-40 99q0 56 43 94.5t121 38.5q72 0 123.5 -27.5t90.5 -72t72 -95.5l-42 -26q-56 87 -110.5 130.5t-130.5 43.5q-58 0 -87.5 -23.5t-29.5 -63.5q0 -47 30 -66t64 -19q27 0 48.5 6t43.5 16z" />
    <glyph glyph-name="rvocalicvowelsigndeva" unicode="&#x943;" 
d="M16 -228q-29 -15 -60.5 -24.5t-65.5 -9.5q-68 0 -108.5 37t-40.5 99q0 53 42 94t123 47l4 -45q-60 -7 -89 -34t-29 -66q0 -45 29 -64t65 -19q32 0 55.5 7t57.5 25z" />
    <glyph glyph-name="ecandravowelsigndeva" unicode="&#x945;" 
d="M63 866q-22 -90 -69.5 -131.5t-120.5 -41.5q-71 0 -119.5 43.5t-79.5 129.5l48 16q25 -69 60 -105.5t93 -36.5q59 0 89.5 36t48.5 108z" />
    <glyph glyph-name="eshortvowelsigndeva" unicode="&#x946;" 
d="M-149 615q-18 76 -36.5 107.5t-59.5 31.5q-15 0 -28.5 -2t-28.5 -2q-32 0 -57 10t-45.5 38t-39.5 82l46 16q12 -36 23.5 -57t28.5 -30.5t46 -9.5q14 0 30 2t32 2q32 0 57.5 -14.5t46 -54.5t36.5 -119h-51z" />
    <glyph glyph-name="evowelsigndeva" unicode="&#x947;" 
d="M-148 615q-23 91 -45.5 141t-48.5 70t-60 20q-22 0 -41.5 -4t-34.5 -10l-16 49q20 7 41 11t49 4q53 0 89.5 -29t63.5 -91t53 -161h-50z" />
    <glyph glyph-name="aivowelsigndeva" unicode="&#x948;" 
d="M-154 615q-28 46 -52.5 69t-49 30.5t-52.5 7.5q-21 0 -41.5 -5.5t-40.5 -14.5l-18 47q21 9 45 15t52 6q48 0 84 -22t63 -66l3 2q-21 61 -41.5 97t-44 51.5t-55.5 15.5q-24 0 -42.5 -4t-33.5 -10l-16 47q20 7 41 11t49 4q53 0 89.5 -29t63.5 -91t53 -161h-56z" />
    <glyph glyph-name="ocandravowelsigndeva" unicode="&#x949;" horiz-adv-x="242" 
d="M148 574v-574h-54v574h-94v48h256v-48h-108zM273 866q-22 -90 -69.5 -131.5t-120.5 -41.5q-71 0 -119.5 43.5t-79.5 129.5l48 16q25 -69 60 -105.5t93 -36.5q59 0 89.5 36t48.5 108z" />
    <glyph glyph-name="oshortvowelsigndeva" unicode="&#x94a;" horiz-adv-x="242" 
d="M148 574v-574h-54v574h-94v48h256v-48h-108zM93 615q-18 76 -36.5 107.5t-59.5 31.5q-15 0 -28.5 -2t-28.5 -2q-32 0 -57 10t-45.5 38t-39.5 82l46 16q12 -36 23.5 -57t28.5 -30.5t46 -9.5q14 0 30 2t32 2q32 0 57.5 -14.5t46 -54.5t36.5 -119h-51z" />
    <glyph glyph-name="ovowelsigndeva" unicode="&#x94b;" horiz-adv-x="242" 
d="M148 574v-574h-54v574h-94v48h256v-48h-108zM94 615q-23 91 -45.5 141t-48.5 70t-60 20q-22 0 -41.5 -4t-34.5 -10l-16 49q20 7 41 11t49 4q53 0 89.5 -29t63.5 -91t53 -161h-50z" />
    <glyph glyph-name="auvowelsigndeva" unicode="&#x94c;" horiz-adv-x="242" 
d="M148 574v-574h-54v574h-94v48h256v-48h-108zM88 615q-28 46 -52.5 69t-49 30.5t-52.5 7.5q-21 0 -41.5 -5.5t-40.5 -14.5l-18 47q21 9 45 15t52 6q48 0 84 -22t63 -66l3 2q-21 61 -41.5 97t-44 51.5t-55.5 15.5q-24 0 -42.5 -4t-33.5 -10l-16 47q20 7 41 11t49 4
q53 0 89.5 -29t63.5 -91t53 -161h-56z" />
    <glyph glyph-name="viramadeva" unicode="&#x94d;" 
d="M-158 -49q16 4 42 4q62 0 108 -24.5t83 -66.5t72 -96l-40 -26q-37 58 -70.5 94t-69 52.5t-78.5 16.5q-26 0 -39 -4z" />
    <glyph glyph-name="uni094E" unicode="&#x94e;" horiz-adv-x="254" 
d="M160 574v-574h-54v622h164v-48h-110z" />
    <glyph glyph-name="awvowelsigndeva" unicode="&#x94f;" horiz-adv-x="242" 
d="M148 574v-574h-54v574h-94v48h256v-48h-108zM78 615q-16 49 -35.5 66t-48.5 17q-14 0 -29 -2t-31 -2q-31 0 -55.5 8.5t-44.5 34t-40 77.5l45 16q13 -36 25.5 -55.5t29 -27t42.5 -7.5q14 0 30 2t32 2q44 0 72 -24t48 -97q7 17 10.5 32t3.5 33q0 28 -14 45t-46 29l-26 10
q-46 16 -65.5 39t-19.5 71v6t1 7l48 1q-2 -3 -2 -7v-8q0 -26 9 -39.5t45 -26.5l30 -12q39 -14 62.5 -37t23.5 -67q0 -21 -5.5 -42.5t-14.5 -41.5h-80z" />
    <glyph glyph-name="omdeva" unicode="&#x950;" horiz-adv-x="844" 
d="M468 817q0 19 12 31.5t30 12.5t30 -12.5t12 -31.5q0 -20 -12.5 -32t-29.5 -12t-29.5 12.5t-12.5 31.5zM700 832q-21 -92 -68.5 -133t-120.5 -41q-70 0 -118.5 44t-80.5 129l48 16q24 -70 59.5 -106.5t92.5 -36.5q58 0 90 37t50 107zM438 218q0 -45 -20 -74t-52.5 -42.5
t-71.5 -13.5q-54 0 -99.5 27t-86.5 86.5t-82 156.5l48 18q46 -116 97 -177.5t118 -61.5q41 0 68 20.5t27 66.5q0 41 -23.5 73.5t-60.5 60.5q-27 -5 -58 -6l-4 48q74 3 107 27.5t33 70.5q0 44 -26.5 65t-69.5 21q-36 0 -67 -10t-65 -28l-17 48q32 16 67.5 27t79.5 11
q72 0 111.5 -37t39.5 -97q0 -41 -21 -73.5t-63 -51.5q17 -14 31.5 -20t35.5 -6q24 0 40 12t34 41l33 54q31 50 61 71.5t76 21.5q32 0 63.5 -17t51.5 -54t20 -97q0 -82 -43.5 -126t-110.5 -44q-47 0 -80.5 18.5t-66.5 50.5l34 36q27 -28 53.5 -42t60.5 -14q40 0 70 30t30 91
q0 58 -24 88.5t-60 30.5q-31 0 -50.5 -17t-45.5 -61l-30 -51q-18 -31 -43 -50.5t-65 -19.5h-10q26 -38 26 -81z" />
    <glyph glyph-name="udattadeva" unicode="&#x951;" 
d="M-97 672h-49v200h49v-200z" />
    <glyph glyph-name="anudattadeva" unicode="&#x952;" 
d="M-404 -88h313v-48h-313v48z" />
    <glyph glyph-name="uni0953" unicode="&#x953;" 
d="M-128 683l-106 189h71l81 -189h-46z" />
    <glyph glyph-name="uni0954" unicode="&#x954;" 
d="M-11 872l-106 -189h-46l82 189h70z" />
    <glyph glyph-name="candralongevowelsigndeva" unicode="&#x955;" 
d="M37 878q-19 -70 -63 -101t-108 -31q-60 0 -104 31.5t-72 100.5l46 18q22 -56 53 -79.5t79 -23.5q51 0 78.5 24t42.5 79zM-278 715h296v-45h-296v45z" />
    <glyph glyph-name="uevowelsigndeva" unicode="&#x956;" 
d="M-291 -170q-64 0 -110.5 19.5t-74.5 43.5l16 45q34 -27 72 -43.5t97 -16.5t97 16.5t72 43.5l16 -45q-28 -24 -74.5 -43.5t-110.5 -19.5z" />
    <glyph glyph-name="uuevowelsigndeva" unicode="&#x957;" 
d="M-290 -140q-64 0 -110.5 19t-74.5 43l15 45q34 -27 72 -43t98 -16q58 0 96 16t72 43l16 -45q-27 -24 -74.5 -43t-109.5 -19zM-290 -259q-64 0 -110 17.5t-75 39.5l15 45q39 -28 77.5 -40.5t92.5 -12.5q53 0 91.5 12.5t76.5 40.5l16 -45q-30 -22 -75.5 -39.5t-108.5 -17.5
z" />
    <glyph glyph-name="qadeva" unicode="&#x958;" horiz-adv-x="720" 
d="M734 574h-319v-242q27 33 57.5 49.5t66.5 16.5q56 0 93.5 -38t37.5 -112q0 -52 -17.5 -102.5t-50.5 -99.5l-48 29q28 38 45 81t17 92q0 102 -83 102q-28 0 -57.5 -19.5t-60.5 -64.5v-266h-53v208q-26 -28 -61.5 -49t-88.5 -21q-44 0 -81 18.5t-59 55t-22 91.5
q0 78 51 122.5t133 44.5q24 0 50.5 -3.5t42.5 -6.5l-5 -50q-37 10 -85 10q-62 0 -97.5 -30t-35.5 -86q0 -62 32 -90t78 -28q81 0 148 84v304h-362v48h734v-48zM104 20q0 21 12 34.5t30 13.5q20 0 31.5 -13.5t11.5 -34.5q0 -22 -12.5 -35t-30.5 -13q-16 0 -29 13t-13 35z" />
    <glyph glyph-name="khhadeva" unicode="&#x959;" horiz-adv-x="775" 
d="M680 574v-574h-53v52q-35 -20 -76 -29.5t-85 -9.5q-111 0 -204 57.5t-180 181.5q-21 30 -28.5 51t-7.5 37q0 20 13 32.5t37 12.5t41 -12t32 -36q28 20 40 53.5t12 72.5q0 28 -6 58t-18 53h-197v48h790v-48h-110zM509 222q39 0 68.5 14t49.5 34v304h-376
q10 -20 16.5 -49.5t6.5 -62.5q0 -80 -36 -128t-103 -72q72 -100 151 -150.5t179 -50.5q91 0 162 45v106q-21 -16 -53 -27t-72 -11q-66 0 -111 41t-45 111q0 74 48.5 113t119.5 39q18 0 41 -2.5t37 -5.5l-5 -48q-15 4 -32 6.5t-37 2.5q-53 0 -85.5 -27.5t-32.5 -79.5t31 -77
t78 -25zM84 32q0 21 12 34.5t30 13.5q20 0 31.5 -13.5t11.5 -34.5q0 -22 -12.5 -35t-30.5 -13q-16 0 -29 13t-13 35z" />
    <glyph glyph-name="ghhadeva" unicode="&#x95a;" horiz-adv-x="534" 
d="M182 574v-315q0 -23 -11 -35t-27 -12q-21 0 -42.5 16.5t-36.5 40t-15 45.5q0 19 12 30.5t41 11.5h25v218h-128v48h548v-48h-109v-574h-53v574h-204zM110 32q0 21 12 34.5t30 13.5q20 0 31.5 -13.5t11.5 -34.5q0 -22 -12.5 -35t-30.5 -13q-16 0 -29 13t-13 35z" />
    <glyph glyph-name="zadeva" unicode="&#x95b;" horiz-adv-x="701" 
d="M606 574v-574h-53v392h-163q-18 0 -33.5 0.5t-27.5 1.5q44 -34 70.5 -78t26.5 -97q0 -43 -18.5 -72t-48.5 -43t-65 -14q-51 0 -96 30t-87.5 99t-83.5 187l48 16q49 -142 101.5 -212t114.5 -70q38 0 60.5 21t22.5 63q0 54 -34.5 97t-85.5 77l20 43h279v133h-553v48h716
v-48h-110zM224 -49q0 21 12 34.5t30 13.5q20 0 31.5 -13.5t11.5 -34.5q0 -22 -12.5 -35t-30.5 -13q-16 0 -29 13t-13 35z" />
    <glyph glyph-name="dddhadeva" unicode="&#x95c;" horiz-adv-x="562" 
d="M353 236q-31 0 -60.5 -6t-55.5 -20q-40 26 -70.5 61t-30.5 85q0 45 28 70q20 20 49 29t83 9h110v110h-406v48h578v-48h-118v-158h-172q-35 0 -53.5 -5t-30.5 -17q-14 -14 -14 -42q0 -30 18 -52t37 -35q23 10 50 15.5t60 5.5q71 0 116 -38t45 -102q0 -62 -47 -104
t-141 -42q-98 0 -171 43.5t-129 111.5l41 33q57 -72 120.5 -105t138.5 -33q68 0 101 26t33 70q0 46 -31 68t-78 22zM254 -134q0 21 12 34.5t30 13.5q20 0 31.5 -13.5t11.5 -34.5q0 -22 -12.5 -35t-30.5 -13q-16 0 -29 13t-13 35z" />
    <glyph glyph-name="rhadeva" unicode="&#x95d;" horiz-adv-x="541" 
d="M296 0q-72 0 -127.5 27t-87 78.5t-31.5 124.5q0 68 34.5 115.5t93 72.5t130.5 26h10v130h-318v48h556v-48h-186v-179h-38q-62 0 -99.5 -9.5t-64.5 -29.5q-64 -47 -64 -132q0 -75 41 -119t109 -56q-11 25 -16.5 48.5t-5.5 50.5q0 52 34 90t100 38q64 0 97 -36.5t33 -88.5
q0 -67 -54 -109t-146 -42zM282 140q0 -50 24 -93q64 1 101 29.5t37 74.5q0 37 -20 57.5t-56 20.5q-40 0 -63 -24.5t-23 -64.5zM223 -134q0 21 12 34.5t30 13.5q20 0 31.5 -13.5t11.5 -34.5q0 -22 -12.5 -35t-30.5 -13q-16 0 -29 13t-13 35z" />
    <glyph glyph-name="fadeva" unicode="&#x95e;" horiz-adv-x="737" 
d="M432 574v-240q26 30 55.5 47t68.5 17q57 0 94.5 -38t37.5 -112q0 -52 -18 -102.5t-50 -99.5l-48 29q27 38 44.5 81t17.5 92q0 50 -22 76t-62 26q-28 0 -57 -19.5t-61 -62.5v-268h-54v220q-23 -22 -56.5 -38t-79.5 -16q-75 0 -113 46q-23 26 -33 62t-10 96v204h-86v48h752
v-48h-320zM139 574v-196q0 -61 7 -89.5t23 -45.5q11 -13 29 -21t44 -8q41 0 73.5 17t62.5 51v292h-239zM110 20q0 21 12 34.5t30 13.5q20 0 31.5 -13.5t11.5 -34.5q0 -22 -12.5 -35t-30.5 -13q-16 0 -29 13t-13 35z" />
    <glyph glyph-name="yyadeva" unicode="&#x95f;" horiz-adv-x="552" 
d="M568 622v-48h-110v-574h-54v202q-27 -21 -65.5 -37.5t-88.5 -16.5q-86 0 -136 52.5t-72 150.5q63 14 91.5 41t28.5 75q0 33 -12.5 59.5t-32.5 47.5h-117v48h568zM105 316q21 -58 55 -89t94 -31q47 0 84 20t66 51v307h-224q16 -25 26 -54t10 -60q0 -56 -29 -91t-82 -53z
M124 25q0 21 12 34.5t30 13.5q20 0 31.5 -13.5t11.5 -34.5q0 -22 -12.5 -35t-30.5 -13q-16 0 -29 13t-13 35z" />
    <glyph glyph-name="rrvocalicdeva" unicode="&#x960;" horiz-adv-x="819" 
d="M116 83l-31 45l257 162q-36 46 -62 72t-50.5 36t-55.5 10q-30 0 -59 -8t-69 -28l-20 49q36 16 70.5 26.5t76.5 10.5q38 0 70 -12.5t63.5 -41.5t69.5 -80v250h-376v48h834v-48h-404v-247q39 2 77.5 7t65.5 13q-9 18 -9 40q0 25 16 38.5t38 13.5q30 0 48.5 -18t18.5 -45
q0 -24 -13.5 -38t-33.5 -21q13 -25 26.5 -46l26.5 -41l-9 -26q-53 -9 -74.5 -31t-21.5 -49q0 -37 27 -52.5t68 -15.5q31 0 55 7t58 23l17 -44q-29 -15 -60.5 -24t-66.5 -9q-24 0 -45 4q-15 -18 -15 -42q0 -37 27 -53t67 -16q32 0 56 7t58 23l16 -44q-29 -15 -60.5 -24.5
t-65.5 -9.5q-74 0 -111.5 33.5t-37.5 87.5q0 31 18 56q-55 32 -55 98q0 36 23 65t71 44q-11 18 -21 36.5t-16 31.5q-31 -10 -77.5 -17.5t-85.5 -8.5v-280h-54v256z" />
    <glyph glyph-name="llvocalicdeva" unicode="&#x961;" horiz-adv-x="664" 
d="M200 427q43 0 77 -15t66 -41q47 50 116 56v147h-459v48h680v-48h-168v-149q41 -9 72.5 -43t31.5 -100q0 -32 -5.5 -57t-12.5 -45q-82 -4 -113 -28t-31 -57q0 -37 27 -53t67 -16q32 0 56 7t58 23l16 -44q-29 -15 -60.5 -24t-66.5 -9q-24 0 -45 4q-15 -17 -15 -42
q0 -37 27 -52.5t68 -15.5q31 0 55 6.5t58 22.5l17 -44q-30 -15 -61 -24t-66 -9q-73 0 -111 33.5t-38 87.5q0 30 18 55q-55 33 -55 98q0 44 35.5 78.5t114.5 43.5q4 14 6.5 29t2.5 32q0 51 -24 74.5t-64 23.5q-29 0 -56.5 -13.5t-52 -49t-43.5 -99.5l-52 16q17 58 43 100
q-26 20 -51 32t-58 12q-48 0 -74.5 -28t-26.5 -72q0 -42 20.5 -78.5t63.5 -78t109 -97.5l-36 -35q-62 53 -109.5 99.5t-74.5 93t-27 97.5q0 53 23.5 85.5t58.5 47.5t69 15z" />
    <glyph glyph-name="dandadeva" unicode="&#x964;" horiz-adv-x="357" 
d="M197 622h53v-622h-53v622z" />
    <glyph glyph-name="dbldandadeva" unicode="&#x965;" horiz-adv-x="563" 
d="M403 622h53v-622h-53v622zM197 622h53v-622h-53v622z" />
    <glyph glyph-name="zerodeva" unicode="&#x966;" horiz-adv-x="551" 
d="M275 128q-57 0 -100.5 24.5t-68 68t-24.5 99.5t24.5 100t68 68.5t100.5 24.5t101 -24.5t68.5 -68t24.5 -100.5q0 -56 -25 -99.5t-68.5 -68t-100.5 -24.5zM274 176q62 0 101 40.5t39 104.5q0 65 -37.5 104t-99.5 39q-61 0 -101 -40.5t-40 -104.5t37.5 -103.5t100.5 -39.5z
" />
    <glyph glyph-name="onedeva" unicode="&#x967;" horiz-adv-x="551" 
d="M272 632q66 0 106.5 -35t40.5 -94q0 -40 -18 -76t-62 -76.5t-121 -93.5l134 -105q36 -28 53 -54t17 -64q0 -28 -12.5 -53.5t-32.5 -52.5l-43 32q15 17 23.5 35.5t8.5 37.5q0 25 -10 42t-40 41l-173 140l3 16q74 48 122.5 85.5t72.5 72t24 72.5q0 41 -26 61.5t-66 20.5
q-41 0 -63 -18t-22 -50q0 -28 19.5 -48t64.5 -34l-30 -41q-52 22 -78.5 51.5t-26.5 76.5q0 42 33.5 76.5t101.5 34.5z" />
    <glyph glyph-name="twodeva" unicode="&#x968;" horiz-adv-x="551" 
d="M471 17l-43 -29q-50 75 -98 134.5t-90 98.5q-25 -5 -51 -5q-37 0 -57 16t-20 38q0 23 15 34.5t37 11.5q20 0 40 -9t48 -29q52 15 88.5 59.5t36.5 108.5q0 68 -37.5 103t-95.5 35q-36 0 -68 -8.5t-72 -28.5l-18 47q73 38 160 38q50 0 92 -20t68 -61t26 -106
q0 -72 -39 -127t-101 -82q45 -43 91.5 -102t87.5 -117z" />
    <glyph glyph-name="threedeva" unicode="&#x969;" horiz-adv-x="551" 
d="M92 592q33 16 71 28t86 12q75 0 117 -35.5t42 -96.5q0 -79 -69 -116q52 -17 75.5 -51t23.5 -79q0 -53 -35 -93t-101 -58q32 -31 64.5 -69t59.5 -73l-42 -28q-38 51 -71 90.5t-64 69.5q-26 -3 -55 -3q-38 0 -57.5 16t-19.5 38t14.5 34t36.5 12q21 0 44 -9.5t53 -36.5
q62 11 90 40.5t28 71.5q0 41 -28.5 69.5t-84.5 31.5q-30 -5 -76 -7l-2 48q65 1 100.5 14t49 35.5t13.5 51.5q0 42 -27.5 63.5t-76.5 21.5q-35 0 -69 -10t-72 -30z" />
    <glyph glyph-name="fourdeva" unicode="&#x96a;" horiz-adv-x="551" 
d="M420 124q0 -57 -40 -91.5t-106 -34.5q-63 0 -106 34t-43 96q0 28 8.5 54t33 59t73.5 81q-57 53 -91.5 91.5t-51.5 66.5t-22.5 50.5t-5.5 43.5q0 16 2 29.5t6 28.5l55 -10q-4 -12 -5.5 -24.5t-1.5 -23.5q0 -26 11 -53.5t43.5 -66t95.5 -98.5q65 64 98 103.5t44 65.5t11 48
q0 23 -8 49l55 10q4 -15 6 -28.5t2 -29.5q0 -24 -7 -47t-25 -50.5t-52.5 -65t-89.5 -90.5q50 -50 73.5 -84t30.5 -60.5t7 -52.5zM178 132q0 -39 24 -62.5t70 -23.5q45 0 69.5 22.5t24.5 60.5q0 21 -6.5 42t-26.5 48t-59 66q-39 -38 -60 -65t-28.5 -47.5t-7.5 -40.5z" />
    <glyph glyph-name="fivedeva" unicode="&#x96b;" horiz-adv-x="551" 
d="M491 -67q-25 43 -51.5 95.5t-48.5 102.5t-33 84q-22 -2 -48 -2q-59 0 -109 20.5t-80.5 66.5t-30.5 124q0 50 16 105t46 103l54 -16q-28 -48 -45 -97t-17 -101q0 -76 40 -117t124 -41q17 0 32 2q-6 22 -6 38q0 27 16 41t40 14q32 0 51 -19.5t19 -45.5q0 -27 -15.5 -42.5
t-41.5 -23.5q14 -34 36.5 -82.5t48.5 -98.5t51 -89z" />
    <glyph glyph-name="sixdeva" unicode="&#x96c;" horiz-adv-x="551" 
d="M476 -67q-28 46 -52 94t-38 81q-14 -2 -29 -2.5t-30 -0.5q-65 0 -108 23t-65 60t-22 80q0 33 15 60t39 44q-38 21 -61 53.5t-23 75.5q0 65 49 98t123 33q28 0 57.5 -4t48.5 -9l-6 -48q-22 5 -45 9t-55 4q-56 0 -87 -21.5t-31 -65.5q0 -36 22 -60t58 -37q37 10 84 10
q14 0 28.5 -1t23.5 -3l-5 -47q-23 3 -53 3q-62 0 -95 -26t-33 -72q0 -53 39 -82t101 -29q9 0 19 0.5t21 2.5q-3 9 -4.5 19t-1.5 16q0 28 16 41.5t39 13.5q32 0 51.5 -19t19.5 -45q0 -25 -15 -40.5t-40 -23.5q15 -33 39.5 -77.5t53.5 -86.5z" />
    <glyph glyph-name="sevendeva" unicode="&#x96d;" horiz-adv-x="551" 
d="M504 271q0 -83 -23.5 -131t-62.5 -69t-86 -21q-81 0 -139 50t-95 166t-56 312l53 10q14 -157 41.5 -266t74.5 -166t120 -57q66 0 93 46.5t27 128.5q0 54 -14.5 103t-43.5 80t-72 31q-37 0 -52 -20t-15 -43t13.5 -43.5t46.5 -33.5t92 -15l-10 -47q-104 4 -148.5 44
t-44.5 96q0 50 31.5 80t87.5 30t97 -36t63 -96t22 -133z" />
    <glyph glyph-name="eightdeva" unicode="&#x96e;" horiz-adv-x="551" 
d="M266 0q-48 0 -91 17.5t-70 54t-27 93.5q0 33 10 63t33 65t62 82l211 257l40 -35l-212 -259q-34 -42 -53.5 -71t-28 -53t-8.5 -50q0 -42 18.5 -67t49 -36t64.5 -11q54 0 104 17t102 51l23 -50q-43 -27 -100 -47.5t-127 -20.5z" />
    <glyph glyph-name="ninedeva" unicode="&#x96f;" horiz-adv-x="551" 
d="M80 474q0 44 19.5 79.5t56 57t85.5 21.5q70 0 114.5 -43t44.5 -117q0 -70 -43.5 -112t-111.5 -44q11 -7 23 -16t24 -19l160 -130q34 -28 51 -53.5t17 -63.5q0 -28 -12.5 -53.5t-32.5 -52.5l-43 32q15 17 23.5 35.5t8.5 37.5q0 25 -10.5 42t-39.5 41l-244 200
q-50 40 -70 77t-20 81zM134 472q0 -50 28.5 -79.5t76.5 -29.5q47 0 77 30t30 81q0 47 -27.5 78.5t-77.5 31.5q-47 0 -77 -31t-30 -81z" />
    <glyph glyph-name="abbreviationsigndeva" unicode="&#x970;" horiz-adv-x="392" 
d="M196 299q-56 0 -94.5 36t-38.5 94q0 53 36.5 91t96.5 38q57 0 94.5 -37t37.5 -92t-37.5 -92.5t-94.5 -37.5zM196 345q38 0 61 23t23 61q0 37 -23 60t-61 23q-40 0 -62.5 -24t-22.5 -59q0 -38 24 -61t61 -23z" />
    <glyph glyph-name="uni0971" unicode="&#x971;" horiz-adv-x="284" 
d="M101 601q0 22 13.5 36.5t32.5 14.5t32 -14.5t13 -36.5q0 -23 -13 -37t-32 -14t-32.5 14.5t-13.5 36.5z" />
    <glyph glyph-name="acandradeva" unicode="&#x972;" horiz-adv-x="717" 
d="M438 218q0 -45 -20 -74t-52.5 -42.5t-71.5 -13.5q-54 0 -99.5 27t-86.5 86.5t-82 156.5l48 18q46 -116 97 -177.5t118 -61.5q41 0 68 20.5t27 66.5q0 41 -23.5 73.5t-60.5 60.5q-27 -5 -58 -6l-4 48q74 3 107 27.5t33 70.5q0 44 -26.5 65t-69.5 21q-36 0 -67 -10t-65 -28
l-17 48q32 16 67.5 27t79.5 11q72 0 111.5 -37t39.5 -97q0 -40 -19.5 -71.5t-58.5 -50.5q13 -11 26 -24q21 -3 42 -4.5t41 -1.5q28 0 53.5 3t53.5 11v214h-77v48h240v-48h-110v-574h-53v310q-25 -7 -49 -9.5t-50 -2.5q-29 0 -59 5q12 -19 19.5 -40t7.5 -45zM753 866
q-22 -90 -69.5 -131.5t-120.5 -41.5q-71 0 -119.5 43.5t-79.5 129.5l48 16q25 -69 60 -105.5t93 -36.5q59 0 89.5 36t48.5 108z" />
    <glyph glyph-name="oedeva" unicode="&#x973;" horiz-adv-x="717" 
d="M438 218q0 -45 -20 -74t-52.5 -42.5t-71.5 -13.5q-54 0 -99.5 27t-86.5 86.5t-82 156.5l48 18q46 -116 97 -177.5t118 -61.5q41 0 68 20.5t27 66.5q0 41 -23.5 73.5t-60.5 60.5q-27 -5 -58 -6l-4 48q74 3 107 27.5t33 70.5q0 44 -26.5 65t-69.5 21q-36 0 -67 -10t-65 -28
l-17 48q32 16 67.5 27t79.5 11q72 0 111.5 -37t39.5 -97q0 -40 -19.5 -71.5t-58.5 -50.5q13 -11 26 -24q21 -3 42 -4.5t41 -1.5q28 0 53.5 3t53.5 11v214h-77v48h240v-48h-110v-574h-53v310q-25 -7 -49 -9.5t-50 -2.5q-29 0 -59 5q12 -19 19.5 -40t7.5 -45zM569 615v190h54
v-190h-54z" />
    <glyph glyph-name="ooedeva" unicode="&#x974;" horiz-adv-x="959" 
d="M438 218q0 -45 -20 -74t-52.5 -42.5t-71.5 -13.5q-54 0 -99.5 27t-86.5 86.5t-82 156.5l48 18q46 -116 97 -177.5t118 -61.5q41 0 68 20.5t27 66.5q0 41 -23.5 73.5t-60.5 60.5q-27 -5 -58 -6l-4 48q74 3 107 27.5t33 70.5q0 44 -26.5 65t-69.5 21q-36 0 -67 -10t-65 -28
l-17 48q32 16 67.5 27t79.5 11q72 0 111.5 -37t39.5 -97q0 -40 -19.5 -71.5t-58.5 -50.5q13 -11 26 -24q21 -3 42 -4.5t41 -1.5q28 0 53.5 3t53.5 11v214h-77v48h482v-48h-110v-574h-53v574h-189v-574h-53v310q-25 -7 -49 -9.5t-50 -2.5q-29 0 -59 5q12 -19 19.5 -40
t7.5 -45zM811 615v190h54v-190h-54z" />
    <glyph glyph-name="awdeva" unicode="&#x975;" horiz-adv-x="959" 
d="M438 218q0 -45 -20 -74t-52.5 -42.5t-71.5 -13.5q-54 0 -99.5 27t-86.5 86.5t-82 156.5l48 18q46 -116 97 -177.5t118 -61.5q41 0 68 20.5t27 66.5q0 41 -23.5 73.5t-60.5 60.5q-27 -5 -58 -6l-4 48q74 3 107 27.5t33 70.5q0 44 -26.5 65t-69.5 21q-36 0 -67 -10t-65 -28
l-17 48q32 16 67.5 27t79.5 11q72 0 111.5 -37t39.5 -97q0 -40 -19.5 -71.5t-58.5 -50.5q13 -11 26 -24q21 -3 42 -4.5t41 -1.5q28 0 53.5 3t53.5 11v214h-77v48h482v-48h-110v-574h-53v574h-189v-574h-53v310q-25 -7 -49 -9.5t-50 -2.5q-29 0 -59 5q12 -19 19.5 -40
t7.5 -45zM795 615q-16 49 -35.5 66t-48.5 17q-14 0 -29 -2t-31 -2q-31 0 -55.5 8.5t-44.5 34t-40 77.5l45 16q13 -36 25.5 -55.5t29 -27t42.5 -7.5q14 0 30 2t32 2q44 0 72 -24t48 -97q7 17 10.5 32t3.5 33q0 28 -14 45t-46 29l-26 10q-46 16 -65.5 39t-19.5 71v6t1 7l48 1
q-2 -3 -2 -7v-8q0 -26 9 -39.5t45 -26.5l30 -12q39 -14 62.5 -37t23.5 -67q0 -21 -5.5 -42.5t-14.5 -41.5h-80z" />
    <glyph glyph-name="uedeva" unicode="&#x976;" horiz-adv-x="717" 
d="M438 218q0 -45 -20 -74t-52.5 -42.5t-71.5 -13.5q-54 0 -99.5 27t-86.5 86.5t-82 156.5l48 18q46 -116 97 -177.5t118 -61.5q41 0 68 20.5t27 66.5q0 41 -23.5 73.5t-60.5 60.5q-27 -5 -58 -6l-4 48q74 3 107 27.5t33 70.5q0 44 -26.5 65t-69.5 21q-36 0 -67 -10t-65 -28
l-17 48q32 16 67.5 27t79.5 11q72 0 111.5 -37t39.5 -97q0 -40 -19.5 -71.5t-58.5 -50.5q13 -11 26 -24q21 -3 42 -4.5t41 -1.5q28 0 53.5 3t53.5 11v214h-77v48h240v-48h-110v-574h-53v310q-25 -7 -49 -9.5t-50 -2.5q-29 0 -59 5q12 -19 19.5 -40t7.5 -45zM426 -170
q-64 0 -110.5 19.5t-74.5 43.5l16 45q34 -27 72 -43.5t97 -16.5t97 16.5t72 43.5l16 -45q-28 -24 -74.5 -43.5t-110.5 -19.5z" />
    <glyph glyph-name="uuedeva" unicode="&#x977;" horiz-adv-x="717" 
d="M438 218q0 -45 -20 -74t-52.5 -42.5t-71.5 -13.5q-54 0 -99.5 27t-86.5 86.5t-82 156.5l48 18q46 -116 97 -177.5t118 -61.5q41 0 68 20.5t27 66.5q0 41 -23.5 73.5t-60.5 60.5q-27 -5 -58 -6l-4 48q74 3 107 27.5t33 70.5q0 44 -26.5 65t-69.5 21q-36 0 -67 -10t-65 -28
l-17 48q32 16 67.5 27t79.5 11q72 0 111.5 -37t39.5 -97q0 -40 -19.5 -71.5t-58.5 -50.5q13 -11 26 -24q21 -3 42 -4.5t41 -1.5q28 0 53.5 3t53.5 11v214h-77v48h240v-48h-110v-574h-53v310q-25 -7 -49 -9.5t-50 -2.5q-29 0 -59 5q12 -19 19.5 -40t7.5 -45zM427 -140
q-64 0 -110.5 19t-74.5 43l15 45q34 -27 72 -43t98 -16q58 0 96 16t72 43l16 -45q-27 -24 -74.5 -43t-109.5 -19zM427 -259q-64 0 -110 17.5t-75 39.5l15 45q39 -28 77.5 -40.5t92.5 -12.5q53 0 91.5 12.5t76.5 40.5l16 -45q-30 -22 -75.5 -39.5t-108.5 -17.5z" />
    <glyph glyph-name="marwariddadeva" unicode="&#x978;" horiz-adv-x="527" 
d="M180 574v-152q23 4 48.5 6.5t49.5 2.5q104 0 152 -51.5t48 -137.5q0 -54 -18 -105t-50 -101l-48 28q27 39 44.5 83t17.5 96q0 39 -13 71t-45 50.5t-88 18.5q-49 0 -98 -13v-73q0 -45 -37 -45q-20 0 -42.5 16.5t-37.5 39t-15 40.5q0 22 15 36.5t64 26.5v163h-127v48h542
v-48h-362z" />
    <glyph glyph-name="zhadeva" unicode="&#x979;" horiz-adv-x="701" 
d="M606 574v-574h-53v412h-163q-17 0 -32.5 0.5t-28.5 1.5q44 -33 70.5 -74t26.5 -91q0 -41 -18.5 -68t-48.5 -40t-65 -13q-51 0 -96 28t-87.5 93t-83.5 177l48 16q49 -134 101.5 -199t114.5 -65q38 0 60.5 19t22.5 59q0 50 -34.5 90t-85.5 72l20 43h279v113h-553v48h716
v-48h-110zM331 56q0 19 11 31.5t27 12.5q17 0 28 -13t11 -31q0 -20 -11.5 -32t-27.5 -12t-27 12t-11 32zM157 56q0 19 11.5 31.5t27.5 12.5t27 -13t11 -31q0 -20 -11.5 -32t-26.5 -12q-16 0 -27.5 12t-11.5 32zM244 -34q0 20 11 31.5t27 11.5t27 -12t11 -31q0 -20 -11 -32
t-27 -12q-15 0 -26.5 12t-11.5 32z" />
    <glyph glyph-name="heavyyadeva" unicode="&#x97a;" horiz-adv-x="552" 
d="M458 574v-574h-54v202q-26 -21 -64.5 -37.5t-89.5 -16.5q-86 0 -136 52.5t-72 150.5q63 14 91.5 41t28.5 75q0 32 -13 59t-32 48h-117v48h568v-48h-110zM404 574h-226q18 -29 26 -57l200 -247v304zM258 379l-47 59q-5 -46 -31.5 -76t-74.5 -46q21 -58 55 -89t94 -31
q37 0 66.5 12t53.5 30z" />
    <glyph glyph-name="gabardeva" unicode="&#x97b;" horiz-adv-x="534" 
d="M85 48h301v526h-204v-300q0 -24 -11 -36t-27 -12q-21 0 -42.5 16.5t-36.5 40t-15 46.5q0 19 12 30t41 11h26v204h-129v48h548v-48h-109v-574h-354v48z" />
    <glyph glyph-name="jabardeva" unicode="&#x97c;" horiz-adv-x="686" 
d="M85 48h453v364h-148q-17 0 -32.5 0.5t-28.5 1.5q44 -33 70.5 -74t26.5 -91q0 -41 -18.5 -68t-48.5 -40t-65 -13q-51 0 -96 28t-87.5 93t-83.5 177l48 16q49 -134 101.5 -199t114.5 -65q38 0 60.5 19t22.5 59q0 50 -34.5 90t-85.5 72l20 43h264v113h-538v48h701v-48h-109
v-574h-507v48z" />
    <glyph glyph-name="uni097D" unicode="&#x97d;" horiz-adv-x="442" 
d="M210 632q86 0 135 -47.5t49 -125.5q0 -70 -41.5 -117.5t-116.5 -60.5v-281h-54v326q81 2 118.5 40.5t37.5 96.5t-37 89.5t-91 31.5q-42 0 -72 -9.5t-60 -23.5l-16 47q31 14 68 24t80 10z" />
    <glyph glyph-name="ddabardeva" unicode="&#x97e;" horiz-adv-x="562" 
d="M352 274q-30 0 -62 -5.5t-58 -18.5q-39 22 -67.5 55t-28.5 76q0 22 7 37.5t20 26.5q19 17 47 26t82 9h114v94h-406v48h578v-48h-118v-142h-178q-45 0 -68.5 -11.5t-23.5 -44.5q0 -24 15.5 -43t33.5 -29q49 19 113 19q76 0 120 -32.5t44 -90.5q0 -56 -46.5 -92.5
t-140.5 -36.5q-97 0 -171.5 38t-131.5 101l40 34q52 -59 116 -91.5t146 -32.5q69 0 101.5 20.5t32.5 59.5t-30 56.5t-80 17.5zM65 48h447v-48h-447v48z" />
    <glyph glyph-name="babardeva" unicode="&#x97f;" horiz-adv-x="538" 
d="M85 48h305v162q-27 -22 -66 -40t-96 -18q-78 0 -128 43t-50 119q0 82 55 126t147 44q28 0 57 -3t45 -7l-5 -48q-19 4 -42.5 7t-54.5 3q-33 0 -60 -7l153 -194q25 16 45 38v301h-390v48h552v-48h-110v-574h-357v48zM104 314q0 -60 35.5 -87.5t89.5 -27.5q40 0 77 15
l-156 197q-46 -32 -46 -97z" />
    <glyph glyph-name="uni200C" unicode="&#x200c;" 
d="M-26 788h52v-954h-52v954z" />
    <glyph glyph-name="uni200D" unicode="&#x200d;" 
d="M146 539l-37 -36l-83 82v-750h-52v750l-83 -82l-37 36l110 107l-110 106l37 36l109 -108l109 108l37 -37l-110 -105z" />
    <glyph glyph-name="uni25CC" unicode="&#x25cc;" horiz-adv-x="510" 
d="M254 457q-28 0 -28 29q0 28 28 28q30 0 30 -28q0 -29 -30 -29zM384 407q-29 0 -29 29t29 29t29 -29t-29 -29zM125 407q-28 0 -28 29t28 29q29 0 29 -29t-29 -29zM81 283q-29 0 -29 29q0 28 29 28q28 0 28 -28q0 -29 -28 -29zM429 283q-29 0 -29 29q0 28 29 28t29 -28
q0 -29 -29 -29zM125 158q-28 0 -28 29t28 29q29 0 29 -29t-29 -29zM384 158q-29 0 -29 29t29 29t29 -29t-29 -29zM254 108q-28 0 -28 29t28 29q30 0 30 -29t-30 -29z" />
    <glyph glyph-name="uni02BC" unicode="&#x2bc;" horiz-adv-x="282" 
d="M196 729l6 -11q-13 -55 -33.5 -118t-42.5 -116h-44q17 66 30.5 128.5t21.5 116.5h62z" />
    <glyph glyph-name="ashortnuktadeva" horiz-adv-x="717" 
d="M438 218q0 -45 -20 -74t-52.5 -42.5t-71.5 -13.5q-54 0 -99.5 27t-86.5 86.5t-82 156.5l48 18q46 -116 97 -177.5t118 -61.5q41 0 68 20.5t27 66.5q0 41 -23.5 73.5t-60.5 60.5q-27 -5 -58 -6l-4 48q74 3 107 27.5t33 70.5q0 44 -26.5 65t-69.5 21q-36 0 -67 -10t-65 -28
l-17 48q32 16 67.5 27t79.5 11q72 0 111.5 -37t39.5 -97q0 -40 -19.5 -71.5t-58.5 -50.5q13 -11 26 -24q21 -3 42 -4.5t41 -1.5q28 0 53.5 3t53.5 11v214h-77v48h240v-48h-110v-574h-53v310q-25 -7 -49 -9.5t-50 -2.5q-29 0 -59 5q12 -19 19.5 -40t7.5 -45zM568 615
q-18 76 -36.5 107.5t-59.5 31.5q-15 0 -28.5 -2t-28.5 -2q-32 0 -57 10t-45.5 38t-39.5 82l46 16q12 -36 23.5 -57t28.5 -30.5t46 -9.5q14 0 30 2t32 2q32 0 57.5 -14.5t46 -54.5t36.5 -119h-51zM224 -34q0 21 12 34.5t30 13.5q20 0 31.5 -13.5t11.5 -34.5q0 -22 -12.5 -35
t-30.5 -13q-16 0 -29 13t-13 35z" />
    <glyph glyph-name="anuktadeva" horiz-adv-x="717" 
d="M438 218q0 -45 -20 -74t-52.5 -42.5t-71.5 -13.5q-54 0 -99.5 27t-86.5 86.5t-82 156.5l48 18q46 -116 97 -177.5t118 -61.5q41 0 68 20.5t27 66.5q0 41 -23.5 73.5t-60.5 60.5q-27 -5 -58 -6l-4 48q74 3 107 27.5t33 70.5q0 44 -26.5 65t-69.5 21q-36 0 -67 -10t-65 -28
l-17 48q32 16 67.5 27t79.5 11q72 0 111.5 -37t39.5 -97q0 -40 -19.5 -71.5t-58.5 -50.5q13 -11 26 -24q21 -3 42 -4.5t41 -1.5q28 0 53.5 3t53.5 11v214h-77v48h240v-48h-110v-574h-53v310q-25 -7 -49 -9.5t-50 -2.5q-29 0 -59 5q12 -19 19.5 -40t7.5 -45zM224 -34
q0 21 12 34.5t30 13.5q20 0 31.5 -13.5t11.5 -34.5q0 -22 -12.5 -35t-30.5 -13q-16 0 -29 13t-13 35z" />
    <glyph glyph-name="aanuktadeva" horiz-adv-x="959" 
d="M438 218q0 -45 -20 -74t-52.5 -42.5t-71.5 -13.5q-54 0 -99.5 27t-86.5 86.5t-82 156.5l48 18q46 -116 97 -177.5t118 -61.5q41 0 68 20.5t27 66.5q0 41 -23.5 73.5t-60.5 60.5q-27 -5 -58 -6l-4 48q74 3 107 27.5t33 70.5q0 44 -26.5 65t-69.5 21q-36 0 -67 -10t-65 -28
l-17 48q32 16 67.5 27t79.5 11q72 0 111.5 -37t39.5 -97q0 -40 -19.5 -71.5t-58.5 -50.5q13 -11 26 -24q21 -3 42 -4.5t41 -1.5q28 0 53.5 3t53.5 11v214h-77v48h482v-48h-110v-574h-53v574h-189v-574h-53v310q-25 -7 -49 -9.5t-50 -2.5q-29 0 -59 5q12 -19 19.5 -40
t7.5 -45zM224 -34q0 21 12 34.5t30 13.5q20 0 31.5 -13.5t11.5 -34.5q0 -22 -12.5 -35t-30.5 -13q-16 0 -29 13t-13 35z" />
    <glyph glyph-name="inuktadeva" horiz-adv-x="482" 
d="M270 236q-30 0 -59 -6t-55 -20q-40 26 -70.5 60t-30.5 84q0 24 7 41t20 31q20 20 49 29t85 9h111v110h-327v48h496v-48h-116v-158h-172q-38 0 -56 -5t-29 -18q-15 -15 -15 -43t18 -50t38 -35q22 10 49.5 15.5t60.5 5.5q69 0 114.5 -37t45.5 -101q0 -71 -49.5 -107.5
t-131.5 -40.5q67 -32 143 -62l-22 -46q-111 53 -201 110q-50 3 -84.5 15t-34.5 41q0 16 10.5 28t32.5 12q38 0 90 -50q21 -2 39 -2q75 0 114.5 24.5t39.5 76.5q0 47 -31 68t-79 21zM150 -139q0 21 12 34.5t30 13.5q20 0 31.5 -13.5t11.5 -34.5q0 -22 -12.5 -35t-30.5 -13
q-16 0 -29 13t-13 35z" />
    <glyph glyph-name="iinuktadeva" horiz-adv-x="482" 
d="M270 236q-30 0 -59 -6t-55 -20q-40 26 -70.5 60t-30.5 84q0 24 7 41t20 31q20 20 49 29t85 9h111v110h-327v48h496v-48h-116v-158h-172q-38 0 -56 -5t-29 -18q-15 -15 -15 -43t18 -50t38 -35q22 10 49.5 15.5t60.5 5.5q69 0 114.5 -37t45.5 -101q0 -71 -49.5 -107.5
t-131.5 -40.5q67 -32 143 -62l-22 -46q-111 53 -201 110q-50 3 -84.5 15t-34.5 41q0 16 10.5 28t32.5 12q38 0 90 -50q21 -2 39 -2q75 0 114.5 24.5t39.5 76.5q0 47 -31 68t-79 21zM311 615q-25 38 -41 75.5t-16 77.5q0 62 41 95t99 33q33 0 58.5 -7t45.5 -17l-16 -46
q-20 11 -39.5 16.5t-42.5 5.5q-46 0 -69.5 -25t-23.5 -65q0 -34 15.5 -67t44.5 -76h-56zM150 -139q0 21 12 34.5t30 13.5q20 0 31.5 -13.5t11.5 -34.5q0 -22 -12.5 -35t-30.5 -13q-16 0 -29 13t-13 35z" />
    <glyph glyph-name="unuktadeva" horiz-adv-x="521" 
d="M0 622h536v-48h-134q48 -42 48 -103q0 -45 -22.5 -80.5t-67.5 -56.5q44 -35 75 -81t31 -109q0 -70 -44 -107t-111 -37q-55 0 -102.5 30t-92 99t-90.5 185l48 18q52 -138 106.5 -210t125.5 -72q44 0 74 21t30 79q0 47 -27 88t-78 79q-26 -5 -55 -6l-4 48q78 2 114 31
t36 80q0 35 -18 61.5t-48 42.5h-330v48zM220 -134q0 21 12 34.5t30 13.5q20 0 31.5 -13.5t11.5 -34.5q0 -22 -12.5 -35t-30.5 -13q-16 0 -29 13t-13 35z" />
    <glyph glyph-name="uunuktadeva" horiz-adv-x="726" 
d="M0 622h741v-48h-339q48 -42 48 -103q0 -45 -22.5 -80.5t-67.5 -56.5q16 -13 31 -27.5t28 -30.5q29 27 59.5 41.5t66.5 14.5q57 0 95 -36.5t38 -105.5q0 -51 -17.5 -97.5t-50.5 -92.5l-48 28q28 36 45.5 75t17.5 87q0 47 -23 71t-62 24q-26 0 -49.5 -13t-46.5 -36
q10 -20 16 -43t6 -49q0 -70 -44 -107t-111 -37q-55 0 -102.5 30t-92 99t-90.5 185l48 18q52 -138 106.5 -210t125.5 -72q44 0 74 21t30 79q0 47 -27 88t-78 79q-26 -5 -55 -6l-4 48q78 2 114 31t36 80q0 35 -18.5 61.5t-46.5 42.5h-331v48zM220 -134q0 21 12 34.5t30 13.5
q20 0 31.5 -13.5t11.5 -34.5q0 -22 -12.5 -35t-30.5 -13q-16 0 -29 13t-13 35z" />
    <glyph glyph-name="rvocalicnuktadeva" horiz-adv-x="819" 
d="M116 83l-31 45l257 162q-36 46 -62 72t-50.5 36t-55.5 10q-30 0 -59 -8t-69 -28l-20 49q36 16 70.5 26.5t76.5 10.5q38 0 70 -12.5t63.5 -41.5t69.5 -80v250h-376v48h834v-48h-404v-247q39 2 77.5 7t65.5 13q-9 18 -9 40q0 25 16 38.5t38 13.5q30 0 48.5 -18t18.5 -45
q0 -24 -13.5 -38t-33.5 -21q13 -25 26.5 -46l26.5 -41l-9 -26q-96 -21 -96 -96q0 -46 29 -65t65 -19q32 0 56 7t58 25l17 -47q-29 -15 -60.5 -24t-66.5 -9q-68 0 -108 36.5t-40 97.5q0 41 23.5 75.5t70.5 52.5q-11 18 -21 36.5t-16 31.5q-31 -10 -77.5 -17.5t-85.5 -8.5
v-280h-54v256zM186 -69q0 21 12 34.5t30 13.5q20 0 31.5 -13.5t11.5 -34.5q0 -22 -12.5 -35t-30.5 -13q-16 0 -29 13t-13 35z" />
    <glyph glyph-name="lvocalicnuktadeva" horiz-adv-x="664" 
d="M401 32q0 48 32.5 85.5t99.5 52.5q12 24 20.5 51t8.5 61q0 51 -24 74.5t-64 23.5q-29 0 -56.5 -13.5t-52 -49t-43.5 -99.5l-52 16q17 58 43 100q-26 20 -51 32t-58 12q-48 0 -74.5 -28t-26.5 -72q0 -42 20.5 -78.5t63.5 -78t109 -97.5l-36 -35q-62 53 -109.5 99.5
t-74.5 93t-27 97.5q0 53 23.5 85.5t58.5 47.5t69 15q43 0 77 -15t66 -41q47 50 116 56v147h-459v48h680v-48h-168v-149q41 -9 72.5 -43t31.5 -100q0 -46 -13 -84.5t-29 -66.5q-62 -8 -92 -35t-30 -67q0 -46 29 -65t65 -19q32 0 56 7t58 25l16 -47q-28 -15 -60 -24t-66 -9
q-68 0 -108.5 36.5t-40.5 98.5zM189 -128q0 21 12 34.5t30 13.5q20 0 31.5 -13.5t11.5 -34.5q0 -22 -12.5 -35t-30.5 -13q-16 0 -29 13t-13 35z" />
    <glyph glyph-name="ecandranuktadeva" horiz-adv-x="528" 
d="M543 574h-100v-207q0 -47 -6.5 -74t-22.5 -49q-15 -21 -43.5 -34.5t-62.5 -17.5l-11 50q22 4 38.5 10.5t28.5 18.5q14 13 20 32t6 63v208h-252v-232q0 -45 3.5 -73.5t14 -47t29.5 -34t51 -35.5l96 -56q46 -27 72.5 -49t38.5 -45t12 -54q0 -38 -14.5 -68.5t-31.5 -55.5
l-47 28q14 21 26 44.5t12 48.5q0 21 -9.5 37.5t-34 36t-71.5 46.5l-89 53q-30 16 -56.5 40t-39.5 56q-8 18 -12 41t-4 64v255h-84v48h543v-48zM507 866q-22 -90 -69.5 -131.5t-120.5 -41.5q-71 0 -119.5 43.5t-79.5 129.5l48 16q25 -69 60 -105.5t93 -36.5q59 0 89.5 36
t48.5 108zM124 -64q0 21 12 34.5t30 13.5q20 0 31.5 -13.5t11.5 -34.5q0 -22 -12.5 -35t-30.5 -13q-16 0 -29 13t-13 35z" />
    <glyph glyph-name="eshortnuktadeva" horiz-adv-x="528" 
d="M543 574h-100v-207q0 -47 -6.5 -74t-22.5 -49q-15 -21 -43.5 -34.5t-62.5 -17.5l-11 50q22 4 38.5 10.5t28.5 18.5q14 13 20 32t6 63v208h-252v-232q0 -45 3.5 -73.5t14 -47t29.5 -34t51 -35.5l96 -56q46 -27 72.5 -49t38.5 -45t12 -54q0 -38 -14.5 -68.5t-31.5 -55.5
l-47 28q14 21 26 44.5t12 48.5q0 21 -9.5 37.5t-34 36t-71.5 46.5l-89 53q-30 16 -56.5 40t-39.5 56q-8 18 -12 41t-4 64v255h-84v48h543v-48zM389 615q-18 76 -36.5 107.5t-59.5 31.5q-15 0 -28.5 -2t-28.5 -2q-32 0 -57 10t-45.5 38t-39.5 82l46 16q12 -36 23.5 -57
t28.5 -30.5t46 -9.5q14 0 30 2t32 2q32 0 57.5 -14.5t46 -54.5t36.5 -119h-51zM124 -64q0 21 12 34.5t30 13.5q20 0 31.5 -13.5t11.5 -34.5q0 -22 -12.5 -35t-30.5 -13q-16 0 -29 13t-13 35z" />
    <glyph glyph-name="enuktadeva" horiz-adv-x="528" 
d="M543 574h-100v-207q0 -47 -6.5 -74t-22.5 -49q-15 -21 -43.5 -34.5t-62.5 -17.5l-11 50q22 4 38.5 10.5t28.5 18.5q14 13 20 32t6 63v208h-252v-232q0 -45 3.5 -73.5t14 -47t29.5 -34t51 -35.5l96 -56q46 -27 72.5 -49t38.5 -45t12 -54q0 -38 -14.5 -68.5t-31.5 -55.5
l-47 28q14 21 26 44.5t12 48.5q0 21 -9.5 37.5t-34 36t-71.5 46.5l-89 53q-30 16 -56.5 40t-39.5 56q-8 18 -12 41t-4 64v255h-84v48h543v-48zM124 -64q0 21 12 34.5t30 13.5q20 0 31.5 -13.5t11.5 -34.5q0 -22 -12.5 -35t-30.5 -13q-16 0 -29 13t-13 35z" />
    <glyph glyph-name="ainuktadeva" horiz-adv-x="528" 
d="M543 574h-100v-207q0 -47 -6.5 -74t-22.5 -49q-15 -21 -43.5 -34.5t-62.5 -17.5l-11 50q22 4 38.5 10.5t28.5 18.5q14 13 20 32t6 63v208h-252v-232q0 -45 3.5 -73.5t14 -47t29.5 -34t51 -35.5l96 -56q46 -27 72.5 -49t38.5 -45t12 -54q0 -38 -14.5 -68.5t-31.5 -55.5
l-47 28q14 21 26 44.5t12 48.5q0 21 -9.5 37.5t-34 36t-71.5 46.5l-89 53q-30 16 -56.5 40t-39.5 56q-8 18 -12 41t-4 64v255h-84v48h543v-48zM390 615q-23 91 -45.5 141t-48.5 70t-60 20q-22 0 -41.5 -4t-34.5 -10l-16 49q20 7 41 11t49 4q53 0 89.5 -29t63.5 -91t53 -161
h-50zM124 -64q0 21 12 34.5t30 13.5q20 0 31.5 -13.5t11.5 -34.5q0 -22 -12.5 -35t-30.5 -13q-16 0 -29 13t-13 35z" />
    <glyph glyph-name="ocandranuktadeva" horiz-adv-x="959" 
d="M438 218q0 -45 -20 -74t-52.5 -42.5t-71.5 -13.5q-54 0 -99.5 27t-86.5 86.5t-82 156.5l48 18q46 -116 97 -177.5t118 -61.5q41 0 68 20.5t27 66.5q0 41 -23.5 73.5t-60.5 60.5q-27 -5 -58 -6l-4 48q74 3 107 27.5t33 70.5q0 44 -26.5 65t-69.5 21q-36 0 -67 -10t-65 -28
l-17 48q32 16 67.5 27t79.5 11q72 0 111.5 -37t39.5 -97q0 -40 -19.5 -71.5t-58.5 -50.5q13 -11 26 -24q21 -3 42 -4.5t41 -1.5q28 0 53.5 3t53.5 11v214h-77v48h482v-48h-110v-574h-53v574h-189v-574h-53v310q-25 -7 -49 -9.5t-50 -2.5q-29 0 -59 5q12 -19 19.5 -40
t7.5 -45zM224 -34q0 21 12 34.5t30 13.5q20 0 31.5 -13.5t11.5 -34.5q0 -22 -12.5 -35t-30.5 -13q-16 0 -29 13t-13 35zM991 866q-22 -90 -69.5 -131.5t-120.5 -41.5q-71 0 -119.5 43.5t-79.5 129.5l48 16q25 -69 60 -105.5t93 -36.5q59 0 89.5 36t48.5 108z" />
    <glyph glyph-name="oshortnuktadeva" horiz-adv-x="959" 
d="M438 218q0 -45 -20 -74t-52.5 -42.5t-71.5 -13.5q-54 0 -99.5 27t-86.5 86.5t-82 156.5l48 18q46 -116 97 -177.5t118 -61.5q41 0 68 20.5t27 66.5q0 41 -23.5 73.5t-60.5 60.5q-27 -5 -58 -6l-4 48q74 3 107 27.5t33 70.5q0 44 -26.5 65t-69.5 21q-36 0 -67 -10t-65 -28
l-17 48q32 16 67.5 27t79.5 11q72 0 111.5 -37t39.5 -97q0 -40 -19.5 -71.5t-58.5 -50.5q13 -11 26 -24q21 -3 42 -4.5t41 -1.5q28 0 53.5 3t53.5 11v214h-77v48h482v-48h-110v-574h-53v574h-189v-574h-53v310q-25 -7 -49 -9.5t-50 -2.5q-29 0 -59 5q12 -19 19.5 -40
t7.5 -45zM810 615q-18 76 -36.5 107.5t-59.5 31.5q-15 0 -28.5 -2t-28.5 -2q-32 0 -57 10t-45.5 38t-39.5 82l46 16q12 -36 23.5 -57t28.5 -30.5t46 -9.5q14 0 30 2t32 2q32 0 57.5 -14.5t46 -54.5t36.5 -119h-51zM224 -34q0 21 12 34.5t30 13.5q20 0 31.5 -13.5t11.5 -34.5
q0 -22 -12.5 -35t-30.5 -13q-16 0 -29 13t-13 35z" />
    <glyph glyph-name="onuktadeva" horiz-adv-x="959" 
d="M438 218q0 -45 -20 -74t-52.5 -42.5t-71.5 -13.5q-54 0 -99.5 27t-86.5 86.5t-82 156.5l48 18q46 -116 97 -177.5t118 -61.5q41 0 68 20.5t27 66.5q0 41 -23.5 73.5t-60.5 60.5q-27 -5 -58 -6l-4 48q74 3 107 27.5t33 70.5q0 44 -26.5 65t-69.5 21q-36 0 -67 -10t-65 -28
l-17 48q32 16 67.5 27t79.5 11q72 0 111.5 -37t39.5 -97q0 -40 -19.5 -71.5t-58.5 -50.5q13 -11 26 -24q21 -3 42 -4.5t41 -1.5q28 0 53.5 3t53.5 11v214h-77v48h482v-48h-110v-574h-53v574h-189v-574h-53v310q-25 -7 -49 -9.5t-50 -2.5q-29 0 -59 5q12 -19 19.5 -40
t7.5 -45zM811 615q-23 91 -45.5 141t-48.5 70t-60 20q-22 0 -41.5 -4t-34.5 -10l-16 49q20 7 41 11t49 4q53 0 89.5 -29t63.5 -91t53 -161h-50zM224 -34q0 21 12 34.5t30 13.5q20 0 31.5 -13.5t11.5 -34.5q0 -22 -12.5 -35t-30.5 -13q-16 0 -29 13t-13 35z" />
    <glyph glyph-name="aunuktadeva" horiz-adv-x="959" 
d="M438 218q0 -45 -20 -74t-52.5 -42.5t-71.5 -13.5q-54 0 -99.5 27t-86.5 86.5t-82 156.5l48 18q46 -116 97 -177.5t118 -61.5q41 0 68 20.5t27 66.5q0 41 -23.5 73.5t-60.5 60.5q-27 -5 -58 -6l-4 48q74 3 107 27.5t33 70.5q0 44 -26.5 65t-69.5 21q-36 0 -67 -10t-65 -28
l-17 48q32 16 67.5 27t79.5 11q72 0 111.5 -37t39.5 -97q0 -40 -19.5 -71.5t-58.5 -50.5q13 -11 26 -24q21 -3 42 -4.5t41 -1.5q28 0 53.5 3t53.5 11v214h-77v48h482v-48h-110v-574h-53v574h-189v-574h-53v310q-25 -7 -49 -9.5t-50 -2.5q-29 0 -59 5q12 -19 19.5 -40
t7.5 -45zM805 615q-28 46 -52.5 69t-49 30.5t-52.5 7.5q-21 0 -41.5 -5.5t-40.5 -14.5l-18 47q21 9 45 15t52 6q48 0 84 -22t63 -66l3 2q-21 61 -41.5 97t-44 51.5t-55.5 15.5q-24 0 -42.5 -4t-33.5 -10l-16 47q20 7 41 11t49 4q53 0 89.5 -29t63.5 -91t53 -161h-56z
M224 -34q0 21 12 34.5t30 13.5q20 0 31.5 -13.5t11.5 -34.5q0 -22 -12.5 -35t-30.5 -13q-16 0 -29 13t-13 35z" />
    <glyph glyph-name="rrvocalicnuktadeva" horiz-adv-x="819" 
d="M116 83l-31 45l257 162q-36 46 -62 72t-50.5 36t-55.5 10q-30 0 -59 -8t-69 -28l-20 49q36 16 70.5 26.5t76.5 10.5q38 0 70 -12.5t63.5 -41.5t69.5 -80v250h-376v48h834v-48h-404v-247q39 2 77.5 7t65.5 13q-9 18 -9 40q0 25 16 38.5t38 13.5q30 0 48.5 -18t18.5 -45
q0 -24 -13.5 -38t-33.5 -21q13 -25 26.5 -46l26.5 -41l-9 -26q-53 -9 -74.5 -31t-21.5 -49q0 -37 27 -52.5t68 -15.5q31 0 55 7t58 23l17 -44q-29 -15 -60.5 -24t-66.5 -9q-24 0 -45 4q-15 -18 -15 -42q0 -37 27 -53t67 -16q32 0 56 7t58 23l16 -44q-29 -15 -60.5 -24.5
t-65.5 -9.5q-74 0 -111.5 33.5t-37.5 87.5q0 31 18 56q-55 32 -55 98q0 36 23 65t71 44q-11 18 -21 36.5t-16 31.5q-31 -10 -77.5 -17.5t-85.5 -8.5v-280h-54v256zM186 -69q0 21 12 34.5t30 13.5q20 0 31.5 -13.5t11.5 -34.5q0 -22 -12.5 -35t-30.5 -13q-16 0 -29 13t-13 35
z" />
    <glyph glyph-name="llvocalicnuktadeva" horiz-adv-x="664" 
d="M200 427q43 0 77 -15t66 -41q47 50 116 56v147h-459v48h680v-48h-168v-149q41 -9 72.5 -43t31.5 -100q0 -32 -5.5 -57t-12.5 -45q-82 -4 -113 -28t-31 -57q0 -37 27 -53t67 -16q32 0 56 7t58 23l16 -44q-29 -15 -60.5 -24t-66.5 -9q-24 0 -45 4q-15 -17 -15 -42
q0 -37 27 -52.5t68 -15.5q31 0 55 6.5t58 22.5l17 -44q-30 -15 -61 -24t-66 -9q-73 0 -111 33.5t-38 87.5q0 30 18 55q-55 33 -55 98q0 44 35.5 78.5t114.5 43.5q4 14 6.5 29t2.5 32q0 51 -24 74.5t-64 23.5q-29 0 -56.5 -13.5t-52 -49t-43.5 -99.5l-52 16q17 58 43 100
q-26 20 -51 32t-58 12q-48 0 -74.5 -28t-26.5 -72q0 -42 20.5 -78.5t63.5 -78t109 -97.5l-36 -35q-62 53 -109.5 99.5t-74.5 93t-27 97.5q0 53 23.5 85.5t58.5 47.5t69 15zM189 -128q0 21 12 34.5t30 13.5q20 0 31.5 -13.5t11.5 -34.5q0 -22 -12.5 -35t-30.5 -13
q-16 0 -29 13t-13 35z" />
    <glyph glyph-name="acandranuktadeva" horiz-adv-x="717" 
d="M438 218q0 -45 -20 -74t-52.5 -42.5t-71.5 -13.5q-54 0 -99.5 27t-86.5 86.5t-82 156.5l48 18q46 -116 97 -177.5t118 -61.5q41 0 68 20.5t27 66.5q0 41 -23.5 73.5t-60.5 60.5q-27 -5 -58 -6l-4 48q74 3 107 27.5t33 70.5q0 44 -26.5 65t-69.5 21q-36 0 -67 -10t-65 -28
l-17 48q32 16 67.5 27t79.5 11q72 0 111.5 -37t39.5 -97q0 -40 -19.5 -71.5t-58.5 -50.5q13 -11 26 -24q21 -3 42 -4.5t41 -1.5q28 0 53.5 3t53.5 11v214h-77v48h240v-48h-110v-574h-53v310q-25 -7 -49 -9.5t-50 -2.5q-29 0 -59 5q12 -19 19.5 -40t7.5 -45zM753 866
q-22 -90 -69.5 -131.5t-120.5 -41.5q-71 0 -119.5 43.5t-79.5 129.5l48 16q25 -69 60 -105.5t93 -36.5q59 0 89.5 36t48.5 108zM224 -34q0 21 12 34.5t30 13.5q20 0 31.5 -13.5t11.5 -34.5q0 -22 -12.5 -35t-30.5 -13q-16 0 -29 13t-13 35z" />
    <glyph glyph-name="ghanuktadeva" horiz-adv-x="560" 
d="M574 574h-108v-574h-54v196q-27 -21 -65.5 -39.5t-94.5 -18.5q-70 0 -115.5 37t-45.5 105q0 29 12 56.5t37 47.5q-42 16 -67.5 49t-25.5 77q0 20 4.5 35.5t12.5 28.5h-64v48h574v-48zM145 282q0 -52 31.5 -74t79.5 -22q51 0 90 21.5t66 53.5v313h-286q-11 -12 -18.5 -28
t-7.5 -36q0 -42 27 -65t68 -28q30 9 65 9q10 0 22 -1t19 -1l-5 -48q-8 0 -16.5 0.5t-15.5 0.5q-50 0 -84.5 -23t-34.5 -72zM122 20q0 21 12 34.5t30 13.5q20 0 31.5 -13.5t11.5 -34.5q0 -22 -12.5 -35t-30.5 -13q-16 0 -29 13t-13 35z" />
    <glyph glyph-name="nganuktadeva" horiz-adv-x="612" 
d="M353 236q-31 0 -60.5 -6t-55.5 -20q-40 25 -70.5 60t-30.5 86q0 45 28 70q20 20 49 29t83 9h110v110h-406v48h626v-48h-166v-158h-172q-35 0 -53.5 -5t-30.5 -17q-14 -14 -14 -42q0 -29 18 -51.5t37 -35.5q23 10 50 15.5t60 5.5q71 0 116 -38t45 -102q0 -63 -47 -104.5
t-141 -41.5q-98 0 -171 43.5t-129 111.5l41 33q57 -72 120.5 -105t138.5 -33q68 0 101 26t33 70q0 46 -31 68t-78 22zM492 348q0 21 12 34t30 13t29.5 -13t11.5 -34t-12 -33.5t-29 -12.5q-16 0 -29 13t-13 33zM254 -134q0 21 12 34.5t30 13.5q20 0 31.5 -13.5t11.5 -34.5
q0 -22 -12.5 -35t-30.5 -13q-16 0 -29 13t-13 35z" />
    <glyph glyph-name="canuktadeva" horiz-adv-x="596" 
d="M612 574h-110v-574h-53v192q-23 -18 -59.5 -36t-88.5 -18q-73 0 -116.5 40t-43.5 108q0 72 64 108l-167 -2v50h340l-4 -48h-36q-64 0 -104 -27.5t-40 -81.5q0 -53 33 -76t75 -23q49 0 85.5 21.5t61.5 47.5v319h-449v48h612v-48zM148 20q0 21 12 34.5t30 13.5
q20 0 31.5 -13.5t11.5 -34.5q0 -22 -12.5 -35t-30.5 -13q-16 0 -29 13t-13 35z" />
    <glyph glyph-name="chanuktadeva" horiz-adv-x="683" 
d="M284 48q88 0 154 37t103.5 98t37.5 133q0 56 -26.5 91.5t-73.5 35.5q-41 0 -61 -22.5t-20 -54.5q0 -39 32 -70t100 -46l-22 -44q-84 22 -123 65t-39 95q0 48 29 81t81 40v87h-456v48h698v-48h-190v-88q52 -9 88 -52t36 -120q0 -59 -24 -115t-69 -101t-109 -71.5
t-144 -26.5q-87 0 -134 39t-47 102q0 27 10 51.5t31 42.5q-46 19 -72 52.5t-26 77.5q0 61 43 92t107 31q21 0 43.5 -3t36.5 -7l-4 -48q-15 4 -33 7.5t-39 3.5q-100 0 -100 -81q0 -38 28 -59.5t68 -31.5q27 9 60 9q10 0 20.5 -0.5t17.5 -1.5l-4 -48q-6 1 -14 1.5t-16 0.5
q-46 0 -74.5 -22t-28.5 -66q0 -48 34.5 -71t90.5 -23zM286 -134q0 21 12 34.5t30 13.5q20 0 31.5 -13.5t11.5 -34.5q0 -22 -12.5 -35t-30.5 -13q-16 0 -29 13t-13 35z" />
    <glyph glyph-name="jhanuktadeva" horiz-adv-x="721" 
d="M270 236q-30 0 -59 -6t-55 -20q-40 26 -70.5 61t-30.5 85q0 24 7 41t20 29q20 20 48 29t84 9h113v110h-327v48h736v-48h-110v-574h-53v227q-25 -7 -49.5 -10t-53.5 -3q-28 0 -55 4q19 -31 19 -70q0 -71 -49.5 -107.5t-131.5 -40.5q67 -32 143 -62l-22 -46
q-111 53 -201 110q-50 3 -84.5 15t-34.5 41q0 16 10.5 28t32.5 12q38 0 90 -50q20 -2 37 -2q156 0 156 101q0 47 -31 68t-79 21zM467 262q55 0 106 15v297h-193v-158h-172q-38 0 -56 -5t-29 -17q-15 -15 -15 -42q0 -29 18 -51.5t38 -35.5q22 10 49.5 15.5t60.5 5.5
q38 0 70 -12q27 -6 56 -9t67 -3zM150 -139q0 21 12 34.5t30 13.5q20 0 31.5 -13.5t11.5 -34.5q0 -22 -12.5 -35t-30.5 -13q-16 0 -29 13t-13 35z" />
    <glyph glyph-name="nyanuktadeva" horiz-adv-x="701" 
d="M182 422q59 28 119 28q64 0 107.5 -34t49.5 -99q6 -1 12 -1q25 0 45.5 5.5t37.5 15.5v237h-553v48h716v-48h-110v-574h-53v282q-18 -7 -39.5 -10.5t-47.5 -3.5h-9q-7 -47 -33.5 -76t-63.5 -41.5t-76 -12.5q-82 0 -145.5 50.5t-112.5 161.5l48 18q41 -96 89.5 -138
t116.5 -42q64 0 96 30t32 80q0 54 -31 78.5t-77 24.5q-28 0 -51 -7.5t-49 -19.5zM214 10q0 21 12 34.5t30 13.5q20 0 31.5 -13.5t11.5 -34.5q0 -22 -12.5 -35t-30.5 -13q-16 0 -29 13t-13 35z" />
    <glyph glyph-name="ttanuktadeva" horiz-adv-x="489" 
d="M504 574h-158v-202h-36q-52 0 -87 -9t-61 -29q-58 -41 -58 -117q0 -55 23 -92.5t62.5 -56t88.5 -18.5q52 0 89 11t81 33l18 -49q-42 -20 -88.5 -32.5t-98.5 -12.5q-67 0 -118.5 26t-81 75t-29.5 119q0 64 32.5 109t87.5 68.5t122 23.5v153h-292v48h504v-48zM230 -134
q0 21 12 34.5t30 13.5q20 0 31.5 -13.5t11.5 -34.5q0 -22 -12.5 -35t-30.5 -13q-16 0 -29 13t-13 35z" />
    <glyph glyph-name="tthanuktadeva" horiz-adv-x="567" 
d="M582 574h-236v-157q85 -33 128 -90t43 -128q0 -69 -31.5 -113t-83.5 -65t-116 -21q-70 0 -123 26t-83 74.5t-30 117.5q0 66 33 111t88 68.5t121 23.5v153h-292v48h582v-48zM284 49q51 0 91.5 16t64.5 49.5t24 85.5q0 54 -34.5 100t-101.5 72h-22q-47 0 -81.5 -9
t-60.5 -27q-28 -20 -44 -51t-16 -73q0 -80 50 -121.5t130 -41.5zM242 -134q0 21 12 34.5t30 13.5q20 0 31.5 -13.5t11.5 -34.5q0 -22 -12.5 -35t-30.5 -13q-16 0 -29 13t-13 35z" />
    <glyph glyph-name="nnanuktadeva" horiz-adv-x="686" 
d="M592 574v-574h-54v574h-144v-242q0 -46 -10 -78t-34 -54q-19 -18 -46 -28t-64 -10q-70 0 -108 40q-48 42 -48 146v226h-84v48h701v-48h-109zM238 211q48 0 72 25q20 18 25 47t5 73v218h-202v-218q0 -44 6 -73t26 -46q10 -12 27 -19t41 -7zM206 18q0 21 12 34.5t30 13.5
q20 0 31.5 -13.5t11.5 -34.5q0 -22 -12.5 -35t-30.5 -13q-16 0 -29 13t-13 35z" />
    <glyph glyph-name="tanuktadeva" horiz-adv-x="540" 
d="M445 574v-574h-53v345h-118q-58 0 -91.5 -7t-53.5 -26q-11 -10 -19 -26.5t-8 -42.5q0 -57 41 -105t115 -112l-36 -35q-47 41 -86.5 81t-63.5 83t-24 92q0 30 12 58.5t38 47.5q26 20 63.5 30.5t106.5 10.5h124v180h-392v48h554v-48h-109zM164 -141q0 21 12 34.5t30 13.5
q20 0 31.5 -13.5t11.5 -34.5q0 -22 -12.5 -35t-30.5 -13q-16 0 -29 13t-13 35z" />
    <glyph glyph-name="thanuktadeva" horiz-adv-x="606" 
d="M512 574v-574h-54v203q-27 -21 -67 -38t-95 -17q-78 0 -132 43t-78 133q88 17 129 52.5t41 97.5q0 53 -26.5 83t-71.5 30q-30 0 -47.5 -15.5t-17.5 -40.5q0 -31 22.5 -49t84.5 -23l-5 -48q-71 7 -110 35t-39 84q0 50 33.5 76t81.5 26q37 0 71.5 -17.5t56 -52t21.5 -86.5
q0 -78 -44 -121t-115 -64q26 -50 59.5 -72.5t89.5 -22.5q49 0 87.5 19t70.5 51v308h-94v48h257v-48h-109zM180 25q0 21 12 34.5t30 13.5q20 0 31.5 -13.5t11.5 -34.5q0 -22 -12.5 -35t-30.5 -13q-16 0 -29 13t-13 35z" />
    <glyph glyph-name="danuktadeva" horiz-adv-x="494" 
d="M410 -51q-20 32 -41 70t-34 66q-26 -5 -59 -5q-39 0 -79 10t-73.5 33t-53.5 60.5t-20 92.5q0 44 15 75t39 52q32 28 80 41t108 13h4v117h-296v48h509v-48h-159v-166h-38q-111 0 -159 -34q-49 -35 -49 -102q0 -64 43 -103.5t129 -39.5q9 0 18 0.5t19 1.5q-8 19 -8 37
q0 26 16.5 39.5t39.5 13.5q32 0 51.5 -19.5t19.5 -45.5t-13.5 -40.5t-36.5 -21.5q14 -29 31.5 -58.5t41.5 -63.5zM154 -53q0 21 12 34.5t30 13.5q20 0 31.5 -13.5t11.5 -34.5q0 -22 -12.5 -35t-30.5 -13q-16 0 -29 13t-13 35z" />
    <glyph glyph-name="dhanuktadeva" horiz-adv-x="578" 
d="M592 574h-109v-574h-53v171q-28 -22 -66 -39.5t-96 -17.5q-71 0 -117 37t-46 104q0 29 11 55.5t35 46.5q-51 17 -81.5 52t-30.5 91q0 58 39 95t96 37q48 0 80 -26t32 -70q0 -46 -36 -85l-41 27q23 23 23 55q0 19 -13.5 36.5t-46.5 17.5q-36 0 -59.5 -25.5t-23.5 -65.5
q0 -51 34 -74.5t84 -30.5q31 10 67 10q10 0 21 -0.5t19 -2.5l-4 -48q-8 2 -17 2h-15q-50 0 -85 -23t-35 -72q0 -52 32 -73.5t82 -21.5q52 0 91 21.5t67 52.5v338h-72v48h234v-48zM181 -19q0 21 12 34.5t30 13.5q20 0 31.5 -13.5t11.5 -34.5q0 -22 -12.5 -35t-30.5 -13
q-16 0 -29 13t-13 35z" />
    <glyph glyph-name="panuktadeva" horiz-adv-x="548" 
d="M453 574v-574h-53v220q-27 -20 -64 -37t-86 -17q-76 0 -118 44q-24 25 -35 61t-11 100v203h-86v48h562v-48h-109zM400 574h-261v-189q0 -66 8 -95.5t24 -46.5q14 -16 35.5 -22.5t47.5 -6.5q43 0 80 19t66 49v292zM128 20q0 21 12 34.5t30 13.5q20 0 31.5 -13.5
t11.5 -34.5q0 -22 -12.5 -35t-30.5 -13q-16 0 -29 13t-13 35z" />
    <glyph glyph-name="banuktadeva" horiz-adv-x="538" 
d="M552 574h-109v-574h-53v195q-27 -21 -66 -39t-96 -18q-78 0 -128 42.5t-50 119.5q0 81 55 125.5t147 44.5q28 0 57 -3t45 -7l-5 -48q-19 4 -42.5 7t-54.5 3q-35 0 -63 -8l159 -192q22 16 42 37v315h-390v48h552v-48zM104 300q0 -60 35.5 -88t89.5 -28q22 0 42 4.5
t38 12.5l-160 194q-45 -31 -45 -95zM129 20q0 21 12 34.5t30 13.5q20 0 31.5 -13.5t11.5 -34.5q0 -22 -12.5 -35t-30.5 -13q-16 0 -29 13t-13 35z" />
    <glyph glyph-name="bhanuktadeva" horiz-adv-x="664" 
d="M162 632q30 0 57 -10.5t46 -33.5q17 -20 27.5 -52.5t10.5 -96.5v-121h213v256h-147v48h309v-48h-108v-574h-54v269h-213v-35q0 -27 -11.5 -39t-29.5 -12q-20 0 -41.5 16.5t-36 39.5t-14.5 43q0 15 11 25.5t38 10.5h31v110q0 52 -6 79.5t-16 44.5q-14 20 -31.5 27.5
t-39.5 7.5q-31 0 -47.5 -16t-16.5 -40q0 -32 25 -50.5t94 -22.5l-6 -48q-75 6 -117.5 34t-42.5 86q0 52 34 77t82 25zM241 30q0 21 12 34.5t30 13.5q20 0 31.5 -13.5t11.5 -34.5q0 -22 -12.5 -35t-30.5 -13q-16 0 -29 13t-13 35z" />
    <glyph glyph-name="manuktadeva" horiz-adv-x="564" 
d="M470 574v-574h-54v269h-236v-35q0 -27 -11.5 -39t-28.5 -12q-20 0 -41.5 16.5t-36 39.5t-14.5 43q0 15 10.5 25.5t38.5 10.5h30v256h-127v48h578v-48h-108zM416 574h-236v-256h236v256zM164 28q0 21 12 34.5t30 13.5q20 0 31.5 -13.5t11.5 -34.5q0 -22 -12.5 -35
t-30.5 -13q-16 0 -29 13t-13 35z" />
    <glyph glyph-name="lanuktadeva" horiz-adv-x="642" 
d="M0 574v48h657v-48h-109v-574h-54v378q-9 2 -20 2q-29 0 -56.5 -13.5t-52 -49t-43.5 -99.5l-52 16q17 59 43 100q-26 20 -51 32t-58 12q-48 0 -74.5 -28t-26.5 -72q0 -42 20.5 -78.5t63.5 -78t109 -97.5l-36 -35q-62 53 -109.5 99.5t-74.5 93t-27 97.5q0 53 23.5 85.5
t58.5 47.5t69 15q43 0 77 -15t65 -40q54 56 134 56q9 0 18 -1v147h-494zM288 -119q0 21 12 34.5t30 13.5q20 0 31.5 -13.5t11.5 -34.5q0 -22 -12.5 -35t-30.5 -13q-16 0 -29 13t-13 35z" />
    <glyph glyph-name="vanuktadeva" horiz-adv-x="525" 
d="M540 574h-110v-574h-52v195q-26 -22 -64 -39.5t-93 -17.5q-73 0 -122 42.5t-49 119.5q0 81 53 125.5t141 44.5q27 0 54.5 -3t43.5 -7l-4 -50q-19 4 -41.5 7t-52.5 3q-66 0 -103 -31t-37 -89q0 -59 34.5 -86.5t84.5 -27.5q49 0 88 21.5t67 52.5v314h-378v48h540v-48z
M129 20q0 21 12 34.5t30 13.5q20 0 31.5 -13.5t11.5 -34.5q0 -22 -12.5 -35t-30.5 -13q-16 0 -29 13t-13 35z" />
    <glyph glyph-name="shanuktadeva" horiz-adv-x="641" 
d="M116 198q-36 0 -55.5 15t-19.5 38t14.5 34t36.5 11q20 0 39.5 -8t46.5 -29q53 18 87.5 66t34.5 119q0 67 -31 104.5t-83 37.5q-36 0 -53 -18t-17 -46q0 -17 10 -37.5t41.5 -35.5t94.5 -16l-12 -48q-88 3 -136 41t-48 98q0 48 33 78t91 30q44 0 81 -21.5t60 -64t23 -105.5
q0 -72 -36.5 -131t-98.5 -89q44 -39 89 -92t80 -101l-42 -30q-54 75 -96.5 123.5t-80.5 82.5q-26 -6 -53 -6zM546 574v-574h-53v574h-97v48h260v-48h-110zM160 -37q0 21 12 34.5t30 13.5q20 0 31.5 -13.5t11.5 -34.5q0 -22 -12.5 -35t-30.5 -13q-16 0 -29 13t-13 35z" />
    <glyph glyph-name="ssanuktadeva" horiz-adv-x="554" 
d="M570 622v-48h-110v-574h-54v220q-29 -21 -66.5 -37.5t-87.5 -16.5q-78 0 -120 44q-24 26 -35 61.5t-11 99.5v203h-86v48h570zM406 574h-234l234 -291v291zM170 243q15 -16 36.5 -22.5t47.5 -6.5q34 0 63.5 11.5t53.5 28.5l-233 292v-161q0 -66 8 -95.5t24 -46.5zM128 20
q0 21 12 34.5t30 13.5q20 0 31.5 -13.5t11.5 -34.5q0 -22 -12.5 -35t-30.5 -13q-16 0 -29 13t-13 35z" />
    <glyph glyph-name="sanuktadeva" horiz-adv-x="634" 
d="M542 574v-574h-54v284q-31 -9 -62 -13.5t-73 -4.5q-39 0 -83.5 6.5t-78.5 18.5q-24 -16 -55 -28q44 -59 102 -122t120 -117l-37 -36q-57 53 -105 104.5t-84 95.5t-57 76q-17 27 -23 44t-6 32q0 19 13 32t37 13t41.5 -12.5t32.5 -36.5q28 21 39.5 54.5t11.5 72.5
q0 31 -6.5 60.5t-16.5 50.5h-198v48h651v-48h-109zM347 314q77 0 141 19v241h-237q10 -19 16.5 -48.5t6.5 -63.5q0 -45 -11.5 -78t-33.5 -56q25 -6 55 -10t63 -4zM66 32q0 21 12 34.5t30 13.5q20 0 31.5 -13.5t11.5 -34.5q0 -22 -12.5 -35t-30.5 -13q-17 0 -29.5 13
t-12.5 35z" />
    <glyph glyph-name="hanuktadeva" horiz-adv-x="510" 
d="M314 54q39 11 64.5 33t25.5 63q0 44 -30.5 71t-101.5 27q-76 0 -115.5 -33t-39.5 -89q0 -32 12.5 -62t48.5 -69t109 -97l-35 -36q-94 76 -141 136.5t-47 129.5q0 41 16.5 72t44.5 52q-21 19 -36 44t-15 60q0 45 28 70q20 20 48 29t78 9h134v110h-362v48h526v-48h-110
v-158h-190q-35 0 -53.5 -5t-30.5 -17q-14 -14 -14 -42q0 -24 12.5 -42.5t29.5 -32.5q47 19 104 19q65 0 105 -20.5t58.5 -53t18.5 -69.5q0 -58 -32 -92.5t-92 -52.5zM77 -175q0 21 12 34.5t30 13.5q20 0 31.5 -13.5t11.5 -34.5q0 -22 -12.5 -35t-30.5 -13q-17 0 -29.5 13
t-12.5 35z" />
    <glyph glyph-name="kassadeva" horiz-adv-x="682" 
d="M588 574v-574h-54v343q-31 -16 -69 -26.5t-92 -10.5q-47 0 -86.5 9t-73.5 24q-52 -31 -80.5 -59.5t-28.5 -72.5q0 -40 30 -70.5t103 -30.5q17 0 34 2q-7 18 -7 36q0 26 16 39t38 13q32 0 51 -20.5t19 -45.5q0 -21 -11 -36t-37 -24q18 -25 38.5 -47.5t48.5 -50.5l-40 -30
l-52.5 63t-41.5 56q-26 -3 -56 -3q-59 0 -101 20t-65 53.5t-23 74.5q0 38 17 66.5t44.5 50.5t59.5 40q-43 28 -68 63.5t-25 83.5q0 52 38.5 87t106.5 35q58 0 97.5 -29t39.5 -87q0 -51 -27 -85t-70 -62q45 -15 104 -15q54 0 94.5 12.5t74.5 35.5v172h-99v48h262v-48h-109z
M130 508q0 -35 21 -66.5t64 -52.5q42 26 66.5 54t24.5 67q0 34 -21 55t-65 21q-40 0 -65 -20.5t-25 -57.5z" />
    <glyph glyph-name="janyadeva" horiz-adv-x="615" 
d="M278 227q0 52 -40 92.5t-144 74.5l16 44h357v136h-467v48h630v-48h-110v-574h-53v390h-180q-29 0 -51 1t-39 3q70 -31 102.5 -73.5t32.5 -97.5q0 -53 -33 -88t-86 -45q32 -20 71.5 -40.5t79.5 -36.5l-23 -47q-102 49 -189 115q-50 2 -84 14t-34 42q0 17 10.5 28.5
t31.5 11.5q20 0 41.5 -10.5t50.5 -38.5q53 3 81.5 30t28.5 69z" />
    <glyph glyph-name="rephdeva" 
d="M-163 615q-25 38 -41 75.5t-16 77.5q0 62 41 95t99 33q33 0 58.5 -7t45.5 -17l-16 -46q-20 11 -39.5 16.5t-42.5 5.5q-46 0 -69.5 -25t-23.5 -65q0 -34 15.5 -67t44.5 -76h-56z" />
    <glyph glyph-name="vattudeva" 
d="M-443 -169l244 157h26l135 -174l-40 -27l-115 151l-219 -151z" />
    <glyph glyph-name="kaprehalfdeva" horiz-adv-x="570" 
d="M586 574h-171v-253q26 23 57 35t76 12h58v-49h-48q-50 0 -80 -11.5t-63 -44.5v-263h-53v207q-26 -26 -61.5 -47.5t-88.5 -21.5q-44 0 -81 18.5t-59 55t-22 91.5q0 78 51 122.5t133 44.5q24 0 50.5 -3.5t42.5 -6.5l-5 -50q-37 10 -85 10q-62 0 -97.5 -30t-35.5 -86
q0 -62 32 -90t78 -28q42 0 78.5 21t69.5 62v305h-362v48h586v-48z" />
    <glyph glyph-name="khaprehalfdeva" horiz-adv-x="623" 
d="M685 86q-49 -34 -101 -53.5t-118 -19.5q-111 0 -204 57.5t-180 181.5q-21 30 -28.5 51t-7.5 37q0 20 13 32.5t37 12.5t41 -12t32 -36q28 20 40 53.5t12 72.5q0 60 -23 111h-198v48h638v-48h-387q10 -20 16.5 -49.5t6.5 -62.5q0 -80 -36 -128t-103 -72q72 -100 151 -150.5
t179 -50.5q56 0 102.5 15.5t99.5 53.5zM654 235q-28 -28 -65 -44.5t-87 -16.5q-66 0 -111 41t-45 111q0 74 48.5 113t119.5 39q18 0 41 -2.5t37 -5.5l-5 -48q-15 4 -32 6.5t-37 2.5q-53 0 -85.5 -27.5t-32.5 -79.5t31 -77t78 -25q41 0 72 16t53 40z" />
    <glyph glyph-name="gaprehalfdeva" horiz-adv-x="267" 
d="M182 574v-315q0 -23 -11 -35t-27 -12q-21 0 -42.5 16.5t-36.5 40t-15 45.5q0 19 12 30.5t41 11.5h25v218h-128v48h282v-48h-100z" />
    <glyph glyph-name="ghaprehalfdeva" horiz-adv-x="346" 
d="M145 282q0 -52 31.5 -74t79.5 -22q52 0 90.5 22t65.5 52l28 -40q-28 -30 -73.5 -56t-114.5 -26q-70 0 -115.5 37t-45.5 105q0 29 12 56.5t37 47.5q-42 16 -67.5 49t-25.5 77q0 20 4.5 35.5t12.5 28.5h-64v48h362v-48h-236q-11 -12 -18.5 -28t-7.5 -36q0 -42 27 -65
t68 -28q30 9 65 9q10 0 22 -1t19 -1l-5 -48q-8 0 -16.5 0.5t-15.5 0.5q-50 0 -84.5 -23.5t-34.5 -71.5z" />
    <glyph glyph-name="ngaprehalfdeva" horiz-adv-x="612" 
d="M353 236q-31 0 -60.5 -6t-55.5 -20q-40 25 -70.5 60t-30.5 86q0 45 28 70q20 20 49 29t83 9h110v110h-406v48h626v-48h-166v-158h-172q-35 0 -53.5 -5t-30.5 -17q-14 -14 -14 -42q0 -29 18 -51.5t37 -35.5q23 10 50 15.5t60 5.5q71 0 116 -38t45 -102q0 -63 -47 -104.5
t-141 -41.5q-98 0 -171 43.5t-129 111.5l41 33q57 -72 120.5 -105t138.5 -33q68 0 101 26t33 70q0 46 -31 68t-78 22zM492 348q0 21 12 34t30 13t29.5 -13t11.5 -34t-12 -33.5t-29 -12.5q-16 0 -29 13t-13 33zM260 -49q16 4 42 4q62 0 108 -24.5t83 -66.5t72 -96l-40 -26
q-37 58 -70.5 94t-69 52.5t-78.5 16.5q-26 0 -39 -4z" />
    <glyph glyph-name="caprehalfdeva" horiz-adv-x="385" 
d="M0 622h400v-48h-400v48zM479 214q-17 -16 -42 -33.5t-58 -30t-78 -12.5q-73 0 -116.5 40t-43.5 108q0 72 64 108l-167 -2v50h340l-4 -48h-36q-64 0 -104 -27.5t-40 -81.5q0 -53 33 -76t75 -23q50 0 86.5 21.5t62.5 48.5z" />
    <glyph glyph-name="chaprehalfdeva" horiz-adv-x="683" 
d="M0 574v48h698v-48h-698zM284 48q88 0 154 37t103.5 98t37.5 133q0 56 -26.5 91.5t-73.5 35.5q-41 0 -61 -22.5t-20 -54.5q0 -39 32 -70t100 -46l-22 -44q-84 22 -123 65t-39 95t35 87t98 35q41 0 76 -19t56 -58t21 -97q0 -59 -24 -115t-69 -101t-109 -71.5t-144 -26.5
q-87 0 -134 39t-47 102q0 27 10 51.5t31 42.5q-46 19 -72 52.5t-26 77.5q0 61 43 92t107 31q21 0 43.5 -3t36.5 -7l-4 -48q-15 4 -33 7.5t-39 3.5q-100 0 -100 -81q0 -38 28 -59.5t68 -31.5q27 9 60 9q10 0 20 -0.5t18 -1.5l-4 -48q-6 1 -14 1.5t-16 0.5q-46 0 -74.5 -22
t-28.5 -66q0 -48 34.5 -71t90.5 -23z" />
    <glyph glyph-name="japrehalfdeva" horiz-adv-x="553" 
d="M0 622h568v-48h-568v48zM553 392h-163q-18 0 -33.5 0.5t-27.5 1.5q44 -34 70.5 -78t26.5 -97q0 -43 -18.5 -72t-48.5 -43t-65 -14q-51 0 -96 30t-87.5 99t-83.5 187l48 16q49 -142 101.5 -212t114.5 -70q38 0 60.5 21t22.5 63q0 54 -34.5 97t-85.5 77l20 43h279v-49z" />
    <glyph glyph-name="jhaprehalfdeva" horiz-adv-x="492" 
d="M270 236q-30 0 -59 -6t-55 -20q-40 26 -70.5 61t-30.5 85q0 24 7 41t20 29q20 20 48 29t84 9h113v110h-327v48h507v-48h-127v-158h-172q-38 0 -56 -5t-29 -17q-15 -15 -15 -42q0 -29 18 -51.5t38 -35.5q22 10 49.5 15.5t60.5 5.5q38 0 70 -12q27 -6 56 -9t67 -3
q35 0 59 4t48 11l8 -47q-26 -8 -50 -12t-62 -4q-28 0 -55 4q19 -31 19 -70q0 -71 -49.5 -107.5t-131.5 -40.5q67 -32 143 -62l-22 -46q-111 53 -201 110q-50 3 -84.5 15t-34.5 41q0 16 10.5 28t32.5 12q38 0 90 -50q20 -2 37 -2q156 0 156 101q0 47 -31 68t-79 21z" />
    <glyph glyph-name="nyaprehalfdeva" horiz-adv-x="514" 
d="M0 622h529v-48h-529v48zM182 422q59 28 119 28q64 0 107.5 -34t49.5 -99q6 -1 12 -1q26 0 46 5t38 15l1 -54q-20 -7 -41.5 -10.5t-47.5 -3.5h-9q-7 -47 -33.5 -76t-63.5 -41.5t-76 -12.5q-82 0 -145.5 50.5t-112.5 161.5l48 18q41 -96 89.5 -138t116.5 -42q64 0 96 30
t32 80q0 54 -31 78.5t-77 24.5q-28 0 -51 -7.5t-49 -19.5z" />
    <glyph glyph-name="ttaprehalfdeva" horiz-adv-x="489" 
d="M504 574h-158v-202h-36q-52 0 -87 -9t-61 -29q-58 -41 -58 -117q0 -55 23 -92.5t62.5 -56t88.5 -18.5q52 0 89 11t81 33l18 -49q-42 -20 -88.5 -32.5t-98.5 -12.5q-67 0 -118.5 26t-81 75t-29.5 119q0 64 32.5 109t87.5 68.5t122 23.5v153h-292v48h504v-48zM222 -49
q16 4 42 4q62 0 108 -24.5t83 -66.5t72 -96l-40 -26q-37 58 -70.5 94t-69 52.5t-78.5 16.5q-26 0 -39 -4z" />
    <glyph glyph-name="tthaprehalfdeva" horiz-adv-x="567" 
d="M582 574h-236v-157q85 -33 128 -90t43 -128q0 -69 -31.5 -113t-83.5 -65t-116 -21q-70 0 -123 26t-83 74.5t-30 117.5q0 66 33 111t88 68.5t121 23.5v153h-292v48h582v-48zM284 49q51 0 91.5 16t64.5 49.5t24 85.5q0 54 -34.5 100t-101.5 72h-22q-47 0 -81.5 -9
t-60.5 -27q-28 -20 -44 -51t-16 -73q0 -80 50 -121.5t130 -41.5zM220 -49q16 4 42 4q62 0 108 -24.5t83 -66.5t72 -96l-40 -26q-37 58 -70.5 94t-69 52.5t-78.5 16.5q-26 0 -39 -4z" />
    <glyph glyph-name="ddaprehalfdeva" horiz-adv-x="562" 
d="M353 236q-31 0 -60.5 -6t-55.5 -20q-40 26 -70.5 61t-30.5 85q0 45 28 70q20 20 49 29t83 9h110v110h-406v48h578v-48h-118v-158h-172q-35 0 -53.5 -5t-30.5 -17q-14 -14 -14 -42q0 -30 18 -52t37 -35q23 10 50 15.5t60 5.5q71 0 116 -38t45 -102q0 -62 -47 -104
t-141 -42q-98 0 -171 43.5t-129 111.5l41 33q57 -72 120.5 -105t138.5 -33q68 0 101 26t33 70q0 46 -31 68t-78 22zM260 -49q16 4 42 4q62 0 108 -24.5t83 -66.5t72 -96l-40 -26q-37 58 -70.5 94t-69 52.5t-78.5 16.5q-26 0 -39 -4z" />
    <glyph glyph-name="ddhaprehalfdeva" horiz-adv-x="541" 
d="M296 0q-72 0 -127.5 27t-87 78.5t-31.5 124.5q0 68 34.5 115.5t93 72.5t130.5 26h10v130h-318v48h556v-48h-186v-179h-38q-62 0 -99.5 -9.5t-64.5 -29.5q-64 -47 -64 -132q0 -75 41 -119t109 -56q-11 25 -16.5 48.5t-5.5 50.5q0 52 34 90t100 38q64 0 97 -36.5t33 -88.5
q0 -67 -54 -109t-146 -42zM282 140q0 -50 24 -93q64 1 101 29.5t37 74.5q0 37 -20 57.5t-56 20.5q-40 0 -63 -24.5t-23 -64.5zM218 -49q16 4 42 4q62 0 108 -24.5t83 -66.5t72 -96l-40 -26q-37 58 -70.5 94t-69 52.5t-78.5 16.5q-26 0 -39 -4z" />
    <glyph glyph-name="nnaprehalfdeva" horiz-adv-x="445" 
d="M240 162q-70 0 -108 40q-48 42 -48 146v226h-84v48h460v-48h-66v-242q0 -46 -10 -78t-34 -54q-19 -18 -46 -28t-64 -10zM238 211q48 0 72 25q20 18 25 47t5 73v218h-202v-218q0 -44 6 -73t26 -46q10 -12 27 -19t41 -7z" />
    <glyph glyph-name="taprehalfdeva" horiz-adv-x="335" 
d="M0 622h350v-48h-350v48zM48 247q0 30 12 58.5t38 47.5q26 20 63.5 30.5t106.5 10.5h104v-49h-98q-58 0 -91.5 -6.5t-53.5 -26.5q-11 -10 -19 -26.5t-8 -42.5q0 -57 41 -105t115 -112l-36 -35q-47 41 -86.5 81t-63.5 83t-24 92z" />
    <glyph glyph-name="thaprehalfdeva" horiz-adv-x="382" 
d="M195 411q-71 7 -110 35t-39 84q0 50 33.5 76t81.5 26q37 0 71.5 -17.5t56 -52t21.5 -86.5q0 -78 -44 -120.5t-114 -64.5q24 -50 57.5 -72.5t90.5 -22.5q50 0 88 18.5t70 52.5l24 -46q-33 -30 -78 -51.5t-108 -21.5q-78 0 -132 43t-78 133q88 17 129 52.5t41 97.5
q0 53 -26.5 83t-71.5 30q-30 0 -47.5 -15.5t-17.5 -40.5q0 -31 22.5 -49t84.5 -23z" />
    <glyph glyph-name="daprehalfdeva" horiz-adv-x="494" 
d="M410 -51q-20 32 -41 70t-34 66q-26 -5 -59 -5q-39 0 -79 10t-73.5 33t-53.5 60.5t-20 92.5q0 44 15 75t39 52q32 28 80 41t108 13h4v117h-296v48h509v-48h-159v-166h-38q-111 0 -159 -34q-49 -35 -49 -102q0 -64 43 -103.5t129 -39.5q9 0 18 0.5t19 1.5q-8 19 -8 37
q0 26 16.5 39.5t39.5 13.5q32 0 51.5 -19.5t19.5 -45.5t-13.5 -40.5t-36.5 -21.5q14 -29 31.5 -58.5t41.5 -63.5zM288 -49q16 4 42 4q62 0 108 -24.5t83 -66.5t72 -96l-40 -26q-37 58 -70.5 94t-69 52.5t-78.5 16.5q-26 0 -39 -4z" />
    <glyph glyph-name="dhaprehalfdeva" horiz-adv-x="357" 
d="M454 190q-32 -28 -75 -52t-111 -24q-71 0 -117 37t-46 104q0 29 11 55.5t35 46.5q-51 17 -81.5 52t-30.5 91q0 58 39 95t96 37q48 0 80 -26t32 -70q0 -46 -36 -85l-41 27q23 23 23 55q0 19 -13.5 36.5t-46.5 17.5q-36 0 -59.5 -25.5t-23.5 -65.5q0 -51 34 -74.5t84 -30.5
q31 10 67 10q10 0 21 -0.5t19 -2.5l-4 -48q-8 2 -17 2h-15q-50 0 -85 -23t-35 -72q0 -52 32 -73.5t82 -21.5q52 0 91.5 21t66.5 53z" />
    <glyph glyph-name="naprehalfdeva" horiz-adv-x="334" 
d="M0 622h350v-48h-350v48zM174 318v-48q0 -24 -11 -35.5t-29 -11.5q-20 0 -41.5 17t-36 40.5t-14.5 45.5q0 18 12 29.5t40 11.5h279v-49h-199z" />
    <glyph glyph-name="paprehalfdeva" horiz-adv-x="322" 
d="M139 574v-189q0 -66 8 -95.5t24 -46.5q14 -16 35.5 -22.5t47.5 -6.5q44 0 81 20t65 50l26 -45q-36 -31 -78 -52t-98 -21q-76 0 -118 44q-24 25 -35 61t-11 100v203h-86v48h336v-48h-197z" />
    <glyph glyph-name="phaprehalfdeva" horiz-adv-x="588" 
d="M602 574h-170v-251q26 22 55.5 33.5t78.5 11.5h58v-49h-50q-35 0 -58 -4t-42 -15.5t-42 -34.5v-265h-54v218q-23 -20 -56.5 -36t-79.5 -16q-75 0 -113 46q-23 26 -33 62t-10 96v204h-86v48h602v-48zM139 574v-196q0 -61 7 -89.5t23 -45.5q11 -13 29 -21t44 -8q41 0 74 16
t62 49v295h-239z" />
    <glyph glyph-name="baprehalfdeva" horiz-adv-x="365" 
d="M0 622h380v-48h-380v48zM416 216q-33 -30 -78 -54t-110 -24q-78 0 -128 42.5t-50 119.5q0 81 55 125.5t147 44.5q28 0 57 -3t45 -7l-5 -48q-19 4 -42.5 7t-54.5 3q-35 0 -63 -8l159 -192q22 15 42 36zM104 300q0 -60 35.5 -88t89.5 -28q22 0 42 4.5t38 11.5l-160 195
q-45 -31 -45 -95z" />
    <glyph glyph-name="bhaprehalfdeva" horiz-adv-x="430" 
d="M303 269v-35q0 -27 -11.5 -39t-29.5 -12q-20 0 -41.5 16.5t-36 39.5t-14.5 43q0 15 11 25.5t38 10.5h31v110q0 52 -6 79.5t-16 44.5q-14 20 -31.5 27.5t-39.5 7.5q-31 0 -47.5 -16t-16.5 -40q0 -32 25 -50.5t94 -22.5l-6 -48q-75 6 -117.5 34t-42.5 86q0 52 34 77t82 25
q30 0 57 -10.5t46 -33.5q17 -20 27.5 -52.5t10.5 -96.5v-121h207v-49h-207zM369 622h75v-48h-75v48z" />
    <glyph glyph-name="maprehalfdeva" horiz-adv-x="334" 
d="M180 318h227v-49h-227v-35q0 -27 -11.5 -39t-28.5 -12q-20 0 -41.5 16.5t-36 39.5t-14.5 43q0 15 10.5 25.5t38.5 10.5h30v256h-127v48h349v-48h-169v-256z" />
    <glyph glyph-name="yaprehalfdeva" horiz-adv-x="331" 
d="M430 222q-31 -27 -74.5 -50.5t-105.5 -23.5q-86 0 -136 52.5t-72 150.5q63 14 91.5 41t28.5 75q0 33 -12.5 59.5t-32.5 47.5h-117v48h346v-48h-166q16 -25 26 -54t10 -60q0 -56 -29 -91t-82 -53q21 -58 55 -89t94 -31q49 0 86.5 21t65.5 51z" />
    <glyph glyph-name="raprehalfdeva" horiz-adv-x="389" 
d="M0 574v48h404v-48h-404zM438 306q-33 -20 -74.5 -28t-85.5 -8q-62 0 -122 18t-124 52l20 46q56 -30 107.5 -48t108.5 -18q52 0 87.5 8t74.5 28z" />
    <glyph glyph-name="laprehalfdeva" horiz-adv-x="476" 
d="M0 622h490v-48h-490v48zM516 373q-18 7 -42 7q-29 0 -56.5 -13.5t-52 -49t-43.5 -99.5l-52 16q17 58 43 100q-26 20 -51 32t-58 12q-48 0 -74.5 -28t-26.5 -72q0 -42 20.5 -78.5t63.5 -78t109 -97.5l-36 -35q-62 53 -109.5 99.5t-74.5 93t-27 97.5q0 53 23.5 85.5
t58.5 47.5t69 15q43 0 77 -15t66 -41q54 57 135 57q14 0 28 -2.5t24 -5.5z" />
    <glyph glyph-name="llaprehalfdeva" horiz-adv-x="690" 
d="M0 622h704v-48h-704v48zM688 260q0 -52 -20.5 -93t-58 -65t-89.5 -24q-50 0 -91 21t-81 62q-30 -49 -65 -66t-77 -17t-77.5 20.5t-57 61.5t-21.5 102q0 54 21 95t59 64t88 23q49 0 90 -20.5t81 -61.5q30 48 64.5 65t78.5 17q42 0 77.5 -20.5t57 -61.5t21.5 -102zM381 226
q-5 -12 -10 -22q36 -39 69.5 -58.5t73.5 -19.5q50 0 85 33.5t35 102.5q0 70 -31 102t-73 32q-40 0 -69 -25t-55 -87zM104 260q0 -70 30 -102t74 -32q40 0 69 26t55 88l24 57q5 12 10 22q-36 38 -69 57.5t-74 19.5q-49 0 -84 -33.5t-35 -102.5z" />
    <glyph glyph-name="vaprehalfdeva" horiz-adv-x="356" 
d="M0 622h370v-48h-370v48zM404 215q-32 -30 -77 -53.5t-106 -23.5q-73 0 -122 42.5t-49 119.5q0 81 53 125.5t141 44.5q27 0 54.5 -3t43.5 -7l-4 -50q-19 4 -41.5 7t-52.5 3q-66 0 -103 -31t-37 -89q0 -59 34.5 -86.5t84.5 -27.5t89 22t66 50z" />
    <glyph glyph-name="shaprehalfdeva" horiz-adv-x="386" 
d="M116 198q-36 0 -55.5 15t-19.5 38t14.5 34t36.5 11q20 0 39.5 -8t46.5 -29q53 18 87.5 66t34.5 119q0 67 -31 104.5t-83 37.5q-36 0 -53 -18t-17 -46q0 -17 10 -37.5t41.5 -35.5t94.5 -16l-12 -48q-88 3 -136 41t-48 98q0 48 33 78t91 30q44 0 81 -21.5t60 -64t23 -105.5
q0 -72 -36.5 -131t-98.5 -89q44 -39 89 -92t80 -101l-42 -30q-54 75 -96.5 123.5t-80.5 82.5q-26 -6 -53 -6z" />
    <glyph glyph-name="ssaprehalfdeva" horiz-adv-x="361" 
d="M407 281l23 -45q-35 -27 -76.5 -48.5t-101.5 -21.5q-78 0 -120 44q-24 26 -35 61.5t-11 99.5v203h-86v48h376v-48h-204zM254 214q34 0 65 12t53 28l-234 292v-161q0 -66 8 -95.5t24 -46.5q15 -16 36.5 -22.5t47.5 -6.5z" />
    <glyph glyph-name="saprehalfdeva" horiz-adv-x="374" 
d="M347 314q32 0 56 3t51 7l6 -48q-24 -6 -49.5 -8t-57.5 -2q-39 0 -83.5 6.5t-78.5 18.5q-24 -16 -55 -28q44 -59 102 -122t120 -117l-37 -36q-57 53 -105 104.5t-84 95.5t-57 76q-17 27 -23 44t-6 32q0 19 13 32t37 13t41.5 -12.5t32.5 -36.5q28 21 39.5 54.5t11.5 72.5
q0 31 -6.5 60.5t-16.5 50.5h-198v48h389v-48h-138q10 -19 16.5 -48.5t6.5 -63.5q0 -45 -11.5 -78t-33.5 -56q25 -6 55 -10t63 -4z" />
    <glyph glyph-name="haprehalfdeva" horiz-adv-x="402" 
d="M460 244h-160q-60 0 -92 -8.5t-54 -26.5q-37 -29 -37 -83q0 -32 12.5 -62t48.5 -69t109 -97l-35 -36q-94 76 -141 136.5t-47 129.5q0 39 16 68.5t42 48.5l6 4q-22 19 -38 45t-16 62q0 45 28 70q20 20 48 29t78 9h72v110h-300v48h416v-48h-62v-158h-128q-35 0 -53.5 -5
t-30.5 -17q-14 -14 -14 -42q0 -25 13.5 -44t31.5 -33q25 9 58.5 13t83.5 4h145v-48z" />
    <glyph glyph-name="zhaprehalfdeva" horiz-adv-x="556" 
d="M0 622h570v-48h-570v48zM294 128q-51 0 -96 28t-87.5 93t-83.5 177l48 16q49 -134 101.5 -199t114.5 -65q38 0 60.5 19t22.5 59q0 50 -34.5 90t-85.5 72l20 43h282v-49h-166q-17 0 -32.5 0.5t-28.5 1.5q44 -33 70.5 -74t26.5 -91q0 -41 -18.5 -68t-48.5 -40t-65 -13z
M196 12q-16 0 -27.5 12t-11.5 32q0 19 11.5 31.5t27.5 12.5t27 -13t11 -31q0 -20 -11.5 -32t-26.5 -12zM369 12q-16 0 -27 12t-11 32q0 19 11 31.5t27 12.5q17 0 28 -13t11 -31q0 -20 -11.5 -32t-27.5 -12zM282 -78q-15 0 -26.5 12t-11.5 32t11 31.5t27 11.5t27 -12t11 -31
q0 -20 -11 -32t-27 -12z" />
    <glyph glyph-name="heavyyaprehalfdeva" horiz-adv-x="333" 
d="M250 148q-86 0 -136 52.5t-72 150.5q63 14 91.5 41t28.5 75q0 32 -13 59t-32 48h-117v48h348v-48h-170q18 -29 26 -57l205 -253l11 -54q-29 -22 -71 -42t-99 -20zM258 379l-47 59q-5 -46 -31.5 -76t-74.5 -46q21 -58 55 -89t94 -31q37 0 66.5 11.5t54.5 29.5z" />
    <glyph glyph-name="kassaprehalfdeva" horiz-adv-x="434" 
d="M490 324q-22 -8 -50.5 -13t-66.5 -5q-47 0 -86.5 9t-73.5 24q-52 -31 -80.5 -59.5t-28.5 -72.5q0 -40 30 -70.5t103 -30.5q17 0 34 2q-7 18 -7 36q0 26 16 39t38 13q32 0 51 -20.5t19 -45.5q0 -21 -11 -36t-37 -24q18 -25 38.5 -47.5t48.5 -50.5l-40 -30l-52.5 63
t-41.5 56q-26 -3 -56 -3q-59 0 -101 20t-65 53.5t-23 74.5q0 38 17 66.5t44.5 50.5t59.5 40q-43 28 -68 63.5t-25 83.5q0 52 38.5 87t106.5 35q58 0 97.5 -29t39.5 -87q0 -51 -27 -85t-70 -62q23 -7 50 -11t54 -4q67 0 114 20zM130 508q0 -35 21 -66.5t64 -52.5
q42 26 66.5 54t24.5 67q0 34 -21 55t-65 21q-40 0 -65 -20.5t-25 -57.5z" />
    <glyph glyph-name="janyaprehalfdeva" horiz-adv-x="400" 
d="M0 622h416v-48h-416v48zM278 227q0 52 -40 92.5t-144 74.5l16 44h338v-48h-161q-29 0 -51 1t-39 3q70 -31 102.5 -73.5t32.5 -97.5q0 -53 -33 -88t-86 -45q32 -20 71.5 -40.5t79.5 -36.5l-23 -47q-102 49 -189 115q-50 2 -84 14t-34 42q0 17 10.5 28.5t31.5 11.5
q20 0 41.5 -10.5t50.5 -38.5q53 3 81.5 30t28.5 69z" />
    <glyph glyph-name="kanuktaprehalfdeva" horiz-adv-x="570" 
d="M586 574h-171v-253q26 23 57 35t76 12h58v-49h-48q-50 0 -80 -11.5t-63 -44.5v-263h-53v207q-26 -26 -61.5 -47.5t-88.5 -21.5q-44 0 -81 18.5t-59 55t-22 91.5q0 78 51 122.5t133 44.5q24 0 50.5 -3.5t42.5 -6.5l-5 -50q-37 10 -85 10q-62 0 -97.5 -30t-35.5 -86
q0 -62 32 -90t78 -28q42 0 78.5 21t69.5 62v305h-362v48h586v-48zM104 20q0 21 12 34.5t30 13.5q20 0 31.5 -13.5t11.5 -34.5q0 -22 -12.5 -35t-30.5 -13q-16 0 -29 13t-13 35z" />
    <glyph glyph-name="khanuktaprehalfdeva" horiz-adv-x="623" 
d="M685 86q-49 -34 -101 -53.5t-118 -19.5q-111 0 -204 57.5t-180 181.5q-21 30 -28.5 51t-7.5 37q0 20 13 32.5t37 12.5t41 -12t32 -36q28 20 40 53.5t12 72.5q0 60 -23 111h-198v48h638v-48h-387q10 -20 16.5 -49.5t6.5 -62.5q0 -80 -36 -128t-103 -72q72 -100 151 -150.5
t179 -50.5q56 0 102.5 15.5t99.5 53.5zM654 235q-28 -28 -65 -44.5t-87 -16.5q-66 0 -111 41t-45 111q0 74 48.5 113t119.5 39q18 0 41 -2.5t37 -5.5l-5 -48q-15 4 -32 6.5t-37 2.5q-53 0 -85.5 -27.5t-32.5 -79.5t31 -77t78 -25q41 0 72 16t53 40zM84 32q0 21 12 34.5
t30 13.5q20 0 31.5 -13.5t11.5 -34.5q0 -22 -12.5 -35t-30.5 -13q-16 0 -29 13t-13 35z" />
    <glyph glyph-name="ganuktaprehalfdeva" horiz-adv-x="267" 
d="M182 574v-315q0 -23 -11 -35t-27 -12q-21 0 -42.5 16.5t-36.5 40t-15 45.5q0 19 12 30.5t41 11.5h25v218h-128v48h282v-48h-100zM110 32q0 21 12 34.5t30 13.5q20 0 31.5 -13.5t11.5 -34.5q0 -22 -12.5 -35t-30.5 -13q-16 0 -29 13t-13 35z" />
    <glyph glyph-name="ghanuktaprehalfdeva" horiz-adv-x="346" 
d="M145 282q0 -52 31.5 -74t79.5 -22q52 0 90.5 22t65.5 52l28 -40q-28 -30 -73.5 -56t-114.5 -26q-70 0 -115.5 37t-45.5 105q0 29 12 56.5t37 47.5q-42 16 -67.5 49t-25.5 77q0 20 4.5 35.5t12.5 28.5h-64v48h362v-48h-236q-11 -12 -18.5 -28t-7.5 -36q0 -42 27 -65
t68 -28q30 9 65 9q10 0 22 -1t19 -1l-5 -48q-8 0 -16.5 0.5t-15.5 0.5q-50 0 -84.5 -23.5t-34.5 -71.5zM122 20q0 21 12 34.5t30 13.5q20 0 31.5 -13.5t11.5 -34.5q0 -22 -12.5 -35t-30.5 -13q-16 0 -29 13t-13 35z" />
    <glyph glyph-name="nganuktaprehalfdeva" horiz-adv-x="612" 
d="M353 236q-31 0 -60.5 -6t-55.5 -20q-40 25 -70.5 60t-30.5 86q0 45 28 70q20 20 49 29t83 9h110v110h-406v48h626v-48h-166v-158h-172q-35 0 -53.5 -5t-30.5 -17q-14 -14 -14 -42q0 -29 18 -51.5t37 -35.5q23 10 50 15.5t60 5.5q71 0 116 -38t45 -102q0 -63 -47 -104.5
t-141 -41.5q-98 0 -171 43.5t-129 111.5l41 33q57 -72 120.5 -105t138.5 -33q68 0 101 26t33 70q0 46 -31 68t-78 22zM492 348q0 21 12 34t30 13t29.5 -13t11.5 -34t-12 -33.5t-29 -12.5q-16 0 -29 13t-13 33zM268 -49q16 4 42 4q62 0 108 -24.5t83 -66.5t72 -96l-40 -26
q-37 58 -70.5 94t-69 52.5t-78.5 16.5q-26 0 -39 -4zM139 -142q0 21 12.5 34.5t30.5 13.5t30 -13.5t12 -34.5t-12 -34.5t-30 -13.5q-17 0 -30 13.5t-13 34.5z" />
    <glyph glyph-name="canuktaprehalfdeva" horiz-adv-x="385" 
d="M0 622h400v-48h-400v48zM479 214q-17 -16 -42 -33.5t-58 -30t-78 -12.5q-73 0 -116.5 40t-43.5 108q0 72 64 108l-167 -2v50h340l-4 -48h-36q-64 0 -104 -27.5t-40 -81.5q0 -53 33 -76t75 -23q50 0 86.5 21.5t62.5 48.5zM148 20q0 21 12 34.5t30 13.5q20 0 31.5 -13.5
t11.5 -34.5q0 -22 -12.5 -35t-30.5 -13q-16 0 -29 13t-13 35z" />
    <glyph glyph-name="chanuktaprehalfdeva" horiz-adv-x="668" 
d="M0 574v48h698v-48h-698zM284 48q88 0 154 37t103.5 98t37.5 133q0 56 -26.5 91.5t-73.5 35.5q-41 0 -61 -22.5t-20 -54.5q0 -39 32 -70t100 -46l-22 -44q-84 22 -123 65t-39 95t35 87t98 35q41 0 76 -19t56 -58t21 -97q0 -59 -24 -115t-69 -101t-109 -71.5t-144 -26.5
q-87 0 -134 39t-47 102q0 27 10 51.5t31 42.5q-46 19 -72 52.5t-26 77.5q0 61 43 92t107 31q21 0 43.5 -3t36.5 -7l-4 -48q-15 4 -33 7.5t-39 3.5q-100 0 -100 -81q0 -38 28 -59.5t68 -31.5q27 9 60 9q10 0 20 -0.5t18 -1.5l-4 -48q-6 1 -14 1.5t-16 0.5q-46 0 -74.5 -22
t-28.5 -66q0 -48 34.5 -71t90.5 -23zM286 -134q0 21 12 34.5t30 13.5q20 0 31.5 -13.5t11.5 -34.5q0 -22 -12.5 -35t-30.5 -13q-16 0 -29 13t-13 35z" />
    <glyph glyph-name="januktaprehalfdeva" horiz-adv-x="553" 
d="M0 622h568v-48h-568v48zM553 392h-163q-18 0 -33.5 0.5t-27.5 1.5q44 -34 70.5 -78t26.5 -97q0 -43 -18.5 -72t-48.5 -43t-65 -14q-51 0 -96 30t-87.5 99t-83.5 187l48 16q49 -142 101.5 -212t114.5 -70q38 0 60.5 21t22.5 63q0 54 -34.5 97t-85.5 77l20 43h279v-49z
M224 -49q0 21 12 34.5t30 13.5q20 0 31.5 -13.5t11.5 -34.5q0 -22 -12.5 -35t-30.5 -13q-16 0 -29 13t-13 35z" />
    </font>
</defs>
</svg>
