<?xml version="1.0" standalone="no"?>
<!DOCTYPE svg PUBLIC "-//W3C//DTD SVG 1.1//EN" "http://www.w3.org/Graphics/SVG/1.1/DTD/svg11.dtd" >
<svg>
<metadata>
Created by FontForge 20090622 at Thu Sep 27 05:35:36 2018
 By deploy user
Copyright 2015 Google Inc. All Rights Reserved.
</metadata>
<defs>
<font id="NotoSansDevanagariUI-SemiBold" horiz-adv-x="0" >
  <font-face 
    font-family="Noto Sans Devanagari SmBd"
    font-weight="600"
    font-stretch="normal"
    units-per-em="1000"
    panose-1="2 11 7 2 4 5 4 2 2 4"
    ascent="800"
    descent="-200"
    bbox="-640 -268 1507 1347"
    underline-thickness="50"
    underline-position="-75"
    unicode-range="U+000D-U+A8FD"
  />
<missing-glyph horiz-adv-x="600" 
d="M94 714h411v-714h-411v714zM454 51v612h-309v-612h309z" />
    <glyph glyph-name=".notdef" horiz-adv-x="600" 
d="M94 714h411v-714h-411v714zM454 51v612h-309v-612h309z" />
    <glyph glyph-name="null" 
 />
    <glyph glyph-name="null" 
 />
    <glyph glyph-name="CR" unicode="&#xd;" horiz-adv-x="260" 
 />
    <glyph glyph-name="space" unicode=" " horiz-adv-x="260" 
 />
    <glyph glyph-name="binducandradeva" unicode="&#x900;" 
d="M-393 700q25 108 84 152t143 44q77 0 137 -46t97 -149l-90 -33q-24 74 -59 108.5t-87 34.5q-57 0 -85.5 -36.5t-43.5 -106.5zM-110 720q0 -22 -16 -38.5t-39 -16.5t-39 16.5t-16 38.5q0 23 16 39.5t39 16.5t39 -16.5t16 -39.5z" />
    <glyph glyph-name="candrabindudeva" unicode="&#x901;" 
d="M-215 841q0 24 16.5 39.5t38.5 15.5t38.5 -15.5t16.5 -39.5q0 -23 -16.5 -39t-38.5 -16t-38.5 16t-16.5 39zM68 861q-26 -107 -84.5 -151.5t-142.5 -44.5q-77 0 -137 46.5t-97 148.5l90 33q25 -74 60 -108.5t87 -34.5q56 0 84 36.5t44 106.5z" />
    <glyph glyph-name="anusvaradeva" unicode="&#x902;" 
d="M-207 773q0 29 19 48.5t47 19.5q29 0 48 -19.5t19 -48.5t-19 -49t-48 -20q-28 0 -47 20t-19 49z" />
    <glyph glyph-name="visargadeva" unicode="&#x903;" horiz-adv-x="281" 
d="M77 436q0 30 19.5 50t48.5 20t49 -20t20 -50t-20 -50.5t-49 -20.5t-48.5 20.5t-19.5 50.5zM77 118q0 30 19.5 50.5t48.5 20.5t49 -20.5t20 -50.5q0 -29 -20 -50t-49 -21t-48.5 21t-19.5 50z" />
    <glyph glyph-name="ashortdeva" unicode="&#x904;" horiz-adv-x="814" 
d="M502 214q0 -70 -46 -108t-127 -38q-61 0 -113 26t-99.5 87.5t-93.5 169.5l99 37q42 -106 90 -164.5t109 -58.5q32 0 50 16t18 48q0 29 -12 52.5t-34 44.5q-32 -7 -70 -8l-6 92q62 3 86.5 21t24.5 51q0 31 -21.5 43t-48.5 12q-34 0 -63 -9.5t-58 -24.5l-33 89q28 14 71 27
t95 13q82 0 126 -42t44 -106q0 -75 -58 -119q6 -6 12 -13q30 -4 66 -4q31 0 56.5 3.5t50.5 10.5v165h-67v95h69q-17 63 -38.5 84t-53.5 21q-13 0 -26.5 -1t-25.5 -1q-49 0 -87 28.5t-68 110.5l90 32q16 -40 33 -59.5t54 -19.5q18 0 33 2t33 2q37 0 65 -16t51 -59.5
t43 -123.5h107v-95h-98v-527h-114v265q-22 -7 -44.5 -9.5t-47.5 -2.5q-13 0 -28 1q5 -19 5 -40z" />
    <glyph glyph-name="adeva" unicode="&#x905;" horiz-adv-x="814" 
d="M502 214q0 -70 -46 -108t-127 -38q-61 0 -113 26t-99.5 87.5t-93.5 169.5l99 37q42 -106 90 -164.5t109 -58.5q32 0 50 16t18 48q0 29 -12 52.5t-34 44.5q-32 -7 -70 -8l-6 92q62 3 86.5 21t24.5 51q0 31 -21.5 43t-48.5 12q-34 0 -63 -9.5t-58 -24.5l-33 89q28 14 71 27
t95 13q82 0 126 -42t44 -106q0 -75 -58 -119q6 -6 12 -13q30 -4 66 -4q31 0 56.5 3.5t50.5 10.5v165h-67v95h279v-95h-98v-527h-114v265q-22 -7 -44.5 -9.5t-47.5 -2.5q-13 0 -28 1q5 -19 5 -40z" />
    <glyph glyph-name="aadeva" unicode="&#x906;" horiz-adv-x="1096" 
d="M502 214q0 -70 -46 -108t-127 -38q-61 0 -113 26t-99.5 87.5t-93.5 169.5l99 37q42 -106 90 -164.5t109 -58.5q32 0 50 16t18 48q0 29 -12 52.5t-34 44.5q-32 -7 -70 -8l-6 92q62 3 86.5 21t24.5 51q0 31 -21.5 43t-48.5 12q-34 0 -63 -9.5t-58 -24.5l-33 89q28 14 71 27
t95 13q82 0 126 -42t44 -106q0 -75 -58 -119q6 -6 12 -13q30 -4 66 -4q31 0 56.5 3.5t50.5 10.5v165h-67v95h560v-95h-98v-527h-114v527h-167v-527h-114v265q-22 -7 -44.5 -9.5t-47.5 -2.5q-13 0 -28 1q5 -19 5 -40z" />
    <glyph glyph-name="ideva" unicode="&#x907;" horiz-adv-x="508" 
d="M273 208q-28 0 -57.5 -6t-54.5 -17q-31 15 -57.5 38.5t-43 53t-16.5 63.5q0 30 10.5 51t27.5 35q23 18 55 25.5t90 7.5h75v68h-302v95h522v-95h-106v-156h-199q-22 0 -31.5 -2.5t-16.5 -6.5q-13 -10 -13 -26t8.5 -28t20.5 -22q44 14 102 14q84 0 132.5 -39.5t48.5 -107.5
q0 -62 -40 -98.5t-114 -46.5q28 -11 59.5 -22t63.5 -21l-41 -86q-63 29 -120 60t-104 62q-59 3 -93.5 19t-34.5 57q0 29 17.5 44.5t41.5 15.5q45 0 95 -45q15 -2 28 -2q62 0 95 16.5t33 48.5q0 25 -19 39t-62 14z" />
    <glyph glyph-name="iideva" unicode="&#x908;" horiz-adv-x="508" 
d="M273 208q-28 0 -57.5 -6t-54.5 -17q-31 15 -57.5 38.5t-43 53t-16.5 63.5q0 30 10.5 51t27.5 35q23 18 55 25.5t90 7.5h75v68h-302v95h522v-95h-106v-156h-199q-22 0 -31.5 -2.5t-16.5 -6.5q-13 -10 -13 -26t8.5 -28t20.5 -22q44 14 102 14q84 0 132.5 -39.5t48.5 -107.5
q0 -62 -40 -98.5t-114 -46.5q28 -11 59.5 -22t63.5 -21l-41 -86q-63 29 -120 60t-104 62q-59 3 -93.5 19t-34.5 57q0 29 17.5 44.5t41.5 15.5q45 0 95 -45q15 -2 28 -2q62 0 95 16.5t33 48.5q0 25 -19 39t-62 14zM283 615q-21 34 -34 70.5t-13 70.5q0 71 48.5 105.5
t121.5 34.5q33 0 62 -5t51 -13l-24 -84q-37 14 -69 14q-40 0 -58.5 -20t-18.5 -57q0 -28 12.5 -57.5t32.5 -58.5h-111z" />
    <glyph glyph-name="udeva" unicode="&#x909;" horiz-adv-x="570" 
d="M0 622h585v-95h-97q23 -34 23 -74q0 -82 -75 -128q34 -32 61.5 -74.5t27.5 -96.5q0 -76 -50 -115t-133 -39q-64 0 -118.5 29.5t-103.5 98t-97 184.5l99 37q47 -121 97 -186t113 -65q37 0 57.5 17t20.5 54q0 36 -19 64.5t-55 55.5q-31 -6 -66 -7l-5 93q64 2 98 20t34 63
q0 22 -11 39.5t-28 29.5h-358v95z" />
    <glyph glyph-name="uudeva" unicode="&#x90a;" horiz-adv-x="804" 
d="M0 622h819v-95h-331q23 -34 23 -74q0 -82 -75 -128q16 -14 29 -29q33 22 67.5 34t72.5 12q71 0 115.5 -39.5t44.5 -115.5q0 -43 -13.5 -90t-48.5 -97l-99 55q22 27 35 60t13 64q0 37 -17 52.5t-46 15.5q-19 0 -37.5 -9t-36.5 -24q10 -30 10 -60q0 -76 -50 -115t-133 -39
q-64 0 -118.5 29.5t-103.5 98t-97 184.5l99 37q47 -121 97 -186t113 -65q37 0 57.5 17t20.5 54q0 36 -19 64.5t-55 55.5q-31 -6 -66 -7l-5 93q64 2 98 20t34 63q0 22 -11 39.5t-28 29.5h-358v95z" />
    <glyph glyph-name="rvocalicdeva" unicode="&#x90b;" horiz-adv-x="893" 
d="M129 51l-60 83l244 141q-35 40 -61.5 56.5t-61.5 16.5q-28 0 -56.5 -8t-69.5 -29l-38 95q40 19 79 30.5t83 11.5q40 0 70.5 -11t60.5 -37t66 -71v198h-385v95h907v-95h-408v-198q29 2 58.5 6t52.5 9q-5 14 -5 29q0 36 24 53.5t54 17.5q45 0 67.5 -24.5t22.5 -58.5
q0 -26 -12.5 -44t-29.5 -26q14 -25 29.5 -46.5l33.5 -46.5l-20 -35q-52 -5 -72 -23t-20 -44q0 -27 19 -40t49 -13q26 0 50 7t58 25l34 -87q-26 -13 -61 -23.5t-82 -10.5q-76 0 -122 39.5t-46 103.5q0 88 87 128q-13 24 -20 39q-27 -10 -68 -16.5t-81 -8.5v-239h-114v211z
" />
    <glyph glyph-name="lvocalicdeva" unicode="&#x90c;" horiz-adv-x="735" 
d="M448 30q0 100 108 137q11 21 17 42t6 43q0 40 -18.5 59t-48.5 19q-20 0 -42.5 -10.5t-44 -40t-36.5 -84.5l-107 33q10 37 25 68q-18 14 -37.5 23t-43.5 9q-34 0 -53 -19t-19 -48q0 -31 17.5 -59.5t54 -62t94.5 -79.5l-75 -75q-98 80 -151.5 145t-53.5 139q0 57 25.5 91.5
t64 50t76.5 15.5q48 0 85.5 -13t73.5 -40q45 39 109 49v105h-474v95h750v-95h-163v-112q46 -15 76 -55t30 -105q0 -43 -12.5 -82t-31.5 -74v0v-1q-55 -5 -77.5 -23.5t-22.5 -45.5t19 -40.5t49 -13.5q26 0 50.5 7.5t58.5 25.5l33 -87q-26 -13 -61.5 -23.5t-81.5 -10.5
q-75 0 -121.5 39.5t-46.5 103.5z" />
    <glyph glyph-name="ecandradeva" unicode="&#x90d;" horiz-adv-x="587" 
d="M602 527h-87v-145q0 -51 -8.5 -81.5t-29.5 -52.5q-39 -43 -132 -52l-21 96q42 8 57 21q11 11 15.5 27t4.5 53v134h-215v-176q0 -41 3 -67t13 -44t30 -34t54 -35l129 -74q61 -36 84.5 -69.5t23.5 -82.5q0 -41 -17 -78t-35 -60l-95 55q11 15 21 35t10 39q0 20 -7.5 34
t-29.5 30t-66 42l-108 63q-39 22 -66.5 46.5t-41.5 58.5q-8 19 -12 44.5t-4 65.5v207h-72v95h602v-95zM586 861q-26 -107 -84.5 -151.5t-142.5 -44.5q-77 0 -137 46.5t-97 148.5l91 33q26 -71 60 -105t86 -34q56 0 83.5 36.5t43.5 102.5z" />
    <glyph glyph-name="eshortdeva" unicode="&#x90e;" horiz-adv-x="587" 
d="M602 527h-87v-145q0 -51 -8.5 -81.5t-29.5 -52.5q-39 -43 -132 -52l-21 96q42 8 57 21q11 11 15.5 27t4.5 53v134h-215v-176q0 -41 3 -67t13 -44t30 -34t54 -35l129 -74q61 -36 84.5 -69.5t23.5 -82.5q0 -41 -17 -78t-35 -60l-95 55q11 15 21 35t10 39q0 20 -7.5 34
t-29.5 30t-66 42l-108 63q-39 22 -66.5 46.5t-41.5 58.5q-8 19 -12 44.5t-4 65.5v207h-72v95h602v-95zM406 615q-17 67 -39 89.5t-56 22.5q-14 0 -25.5 -1t-25.5 -1q-49 0 -87 28.5t-68 110.5l89 32q17 -40 34 -59.5t54 -19.5q18 0 33 2t32 2q38 0 66 -16.5t51 -61
t45 -128.5h-103z" />
    <glyph glyph-name="edeva" unicode="&#x90f;" horiz-adv-x="587" 
d="M602 527h-87v-145q0 -51 -8.5 -81.5t-29.5 -52.5q-39 -43 -132 -52l-21 96q42 8 57 21q11 11 15.5 27t4.5 53v134h-215v-176q0 -41 3 -67t13 -44t30 -34t54 -35l129 -74q61 -36 84.5 -69.5t23.5 -82.5q0 -41 -17 -78t-35 -60l-95 55q11 15 21 35t10 39q0 20 -7.5 34
t-29.5 30t-66 42l-108 63q-39 22 -66.5 46.5t-41.5 58.5q-8 19 -12 44.5t-4 65.5v207h-72v95h602v-95z" />
    <glyph glyph-name="aideva" unicode="&#x910;" horiz-adv-x="587" 
d="M602 527h-87v-145q0 -51 -8.5 -81.5t-29.5 -52.5q-39 -43 -132 -52l-21 96q42 8 57 21q11 11 15.5 27t4.5 53v134h-215v-176q0 -41 3 -67t13 -44t30 -34t54 -35l129 -74q61 -36 84.5 -69.5t23.5 -82.5q0 -41 -17 -78t-35 -60l-95 55q11 15 21 35t10 39q0 20 -7.5 34
t-29.5 30t-66 42l-108 63q-39 22 -66.5 46.5t-41.5 58.5q-8 19 -12 44.5t-4 65.5v207h-72v95h602v-95zM406 615q-19 67 -36.5 107t-40.5 58.5t-57 18.5q-20 0 -37.5 -4.5t-31.5 -9.5l-31 93q23 9 47 13.5t53 4.5q40 0 73.5 -12t61.5 -42t53 -85t49 -142h-103z" />
    <glyph glyph-name="ocandradeva" unicode="&#x911;" horiz-adv-x="1096" 
d="M502 214q0 -70 -46 -108t-127 -38q-61 0 -113 26t-99.5 87.5t-93.5 169.5l99 37q42 -106 90 -164.5t109 -58.5q32 0 50 16t18 48q0 29 -12 52.5t-34 44.5q-32 -7 -70 -8l-6 92q62 3 86.5 21t24.5 51q0 31 -21.5 43t-48.5 12q-34 0 -63 -9.5t-58 -24.5l-33 89q28 14 71 27
t95 13q82 0 126 -42t44 -106q0 -75 -58 -119q6 -6 12 -13q30 -4 66 -4q31 0 56.5 3.5t50.5 10.5v165h-67v95h560v-95h-98v-527h-114v527h-167v-527h-114v265q-22 -7 -44.5 -9.5t-47.5 -2.5q-13 0 -28 1q5 -19 5 -40zM1146 861q-26 -107 -84.5 -151.5t-142.5 -44.5
q-77 0 -137 46.5t-97 148.5l91 33q26 -71 60 -105t86 -34q56 0 83.5 36.5t43.5 102.5z" />
    <glyph glyph-name="oshortdeva" unicode="&#x912;" horiz-adv-x="1096" 
d="M502 214q0 -70 -46 -108t-127 -38q-61 0 -113 26t-99.5 87.5t-93.5 169.5l99 37q42 -106 90 -164.5t109 -58.5q32 0 50 16t18 48q0 29 -12 52.5t-34 44.5q-32 -7 -70 -8l-6 92q62 3 86.5 21t24.5 51q0 31 -21.5 43t-48.5 12q-34 0 -63 -9.5t-58 -24.5l-33 89q28 14 71 27
t95 13q82 0 126 -42t44 -106q0 -75 -58 -119q6 -6 12 -13q30 -4 66 -4q31 0 56.5 3.5t50.5 10.5v165h-67v95h560v-95h-98v-527h-114v527h-167v-527h-114v265q-22 -7 -44.5 -9.5t-47.5 -2.5q-13 0 -28 1q5 -19 5 -40zM903 615q-17 67 -39 89.5t-56 22.5q-14 0 -25.5 -1
t-25.5 -1q-49 0 -87 28.5t-68 110.5l89 32q17 -40 34 -59.5t54 -19.5q18 0 33 2t32 2q38 0 66 -16.5t51 -61t45 -128.5h-103z" />
    <glyph glyph-name="odeva" unicode="&#x913;" horiz-adv-x="1096" 
d="M502 214q0 -70 -46 -108t-127 -38q-61 0 -113 26t-99.5 87.5t-93.5 169.5l99 37q42 -106 90 -164.5t109 -58.5q32 0 50 16t18 48q0 29 -12 52.5t-34 44.5q-32 -7 -70 -8l-6 92q62 3 86.5 21t24.5 51q0 31 -21.5 43t-48.5 12q-34 0 -63 -9.5t-58 -24.5l-33 89q28 14 71 27
t95 13q82 0 126 -42t44 -106q0 -75 -58 -119q6 -6 12 -13q30 -4 66 -4q31 0 56.5 3.5t50.5 10.5v165h-67v95h560v-95h-98v-527h-114v527h-167v-527h-114v265q-22 -7 -44.5 -9.5t-47.5 -2.5q-13 0 -28 1q5 -19 5 -40zM903 615q-19 67 -36.5 107t-40.5 58.5t-57 18.5
q-20 0 -37.5 -4.5t-31.5 -9.5l-31 93q23 9 47 13.5t53 4.5q40 0 73.5 -12t61.5 -42t53 -85t49 -142h-103z" />
    <glyph glyph-name="audeva" unicode="&#x914;" horiz-adv-x="1096" 
d="M502 214q0 -70 -46 -108t-127 -38q-61 0 -113 26t-99.5 87.5t-93.5 169.5l99 37q42 -106 90 -164.5t109 -58.5q32 0 50 16t18 48q0 29 -12 52.5t-34 44.5q-32 -7 -70 -8l-6 92q62 3 86.5 21t24.5 51q0 31 -21.5 43t-48.5 12q-34 0 -63 -9.5t-58 -24.5l-33 89q28 14 71 27
t95 13q82 0 126 -42t44 -106q0 -75 -58 -119q6 -6 12 -13q30 -4 66 -4q31 0 56.5 3.5t50.5 10.5v165h-67v95h560v-95h-98v-527h-114v527h-167v-527h-114v265q-22 -7 -44.5 -9.5t-47.5 -2.5q-13 0 -28 1q5 -19 5 -40zM895 615q-28 34 -49 49.5t-40 20t-42 4.5q-22 0 -42 -6
t-40 -16l-31 80q25 11 51 17.5t51 6.5q78 0 135 -71l4 1q-29 68 -57.5 91.5t-70.5 23.5q-19 0 -35.5 -4t-31.5 -10l-27 79q18 7 42 11t51 4q40 0 73.5 -10t62.5 -39t55 -85t51 -147h-110z" />
    <glyph glyph-name="kadeva" unicode="&#x915;" horiz-adv-x="800" 
d="M814 527h-323v-163q49 36 113 36q68 0 112 -43t44 -120q0 -46 -16 -99t-52 -106l-100 55q23 31 39 68t16 74q0 41 -17.5 59t-45.5 18q-25 0 -49 -16t-44 -39v-251h-114v144q-30 -20 -64 -32.5t-80 -12.5q-52 0 -96 20t-70.5 59.5t-26.5 98.5q0 55 26.5 95t73 62t108.5 22
q26 0 54.5 -2.5t43.5 -6.5l-8 -97q-15 4 -36 6.5t-40 2.5q-51 0 -79.5 -21.5t-28.5 -59.5q0 -45 27 -64t61 -19q43 0 76 19.5t59 46.5v266h-377v95h814v-95z" />
    <glyph glyph-name="khadeva" unicode="&#x916;" horiz-adv-x="867" 
d="M783 527v-527h-114v43q-39 -20 -84.5 -29.5t-94.5 -9.5q-93 0 -170 33t-138 86t-107 112q-25 33 -33 55.5t-8 40.5q0 24 17 46t57 22q46 0 79 -35q14 20 19.5 44.5t5.5 49.5q0 37 -10 69h-202v95h881v-95h-98zM557 255q35 0 62.5 12.5t49.5 31.5v228h-355q6 -16 9 -35.5
t3 -46.5q0 -77 -36.5 -123.5t-93.5 -73.5q56 -64 126.5 -106t168.5 -42q58 0 100.5 12t77.5 32v56q-24 -14 -56 -23t-74 -9q-74 0 -121.5 40.5t-47.5 111.5t48.5 112.5t131.5 41.5q16 0 43 -2t45 -7l-9 -86q-13 3 -29.5 5.5t-35.5 2.5q-40 0 -62.5 -17.5t-22.5 -49.5
q0 -34 22.5 -49.5t55.5 -15.5z" />
    <glyph glyph-name="gadeva" unicode="&#x917;" horiz-adv-x="592" 
d="M232 527v-298q0 -68 -60 -68q-22 0 -45.5 13t-44.5 34t-34 45.5t-13 47.5q0 24 13.5 42t53.5 18h16v166h-118v95h607v-95h-98v-527h-114v527h-163z" />
    <glyph glyph-name="ghadeva" unicode="&#x918;" horiz-adv-x="625" 
d="M639 527h-98v-527h-114v151q-33 -20 -70 -32t-87 -12q-88 0 -139 42.5t-51 112.5q0 25 7.5 48t23.5 42q-35 20 -55 51.5t-20 68.5q0 33 9 55h-45v95h639v-95zM194 265q0 -33 24 -48t61 -15q52 0 88.5 22.5t59.5 48.5v254h-260q-17 -19 -17 -44q0 -28 15.5 -45t39.5 -23
q30 7 65 7q13 0 27.5 -1t21.5 -3l-7 -93q-5 1 -12.5 1h-14.5q-43 0 -67 -15.5t-24 -45.5z" />
    <glyph glyph-name="ngadeva" unicode="&#x919;" horiz-adv-x="677" 
d="M368 208q-58 0 -112 -23q-30 15 -57 38t-43.5 53t-16.5 64q0 30 10.5 51t27.5 35q23 18 55 25.5t90 7.5h63v68h-385v95h691v-95h-192v-156h-187q-22 0 -31.5 -2.5t-16.5 -6.5q-13 -10 -13 -26t9 -28t20 -22q44 14 102 14q84 0 132.5 -39t48.5 -107q0 -67 -52 -110.5
t-159 -43.5q-111 0 -193.5 45.5t-140.5 110.5l84 67q55 -60 113 -92.5t134 -32.5q53 0 76.5 16t23.5 43q0 24 -19 37.5t-62 13.5zM530 339q0 27 17.5 45.5t44.5 18.5q26 0 44 -18.5t18 -45.5t-18 -45.5t-44 -18.5q-27 0 -44.5 18.5t-17.5 45.5z" />
    <glyph glyph-name="cadeva" unicode="&#x91a;" horiz-adv-x="669" 
d="M684 527h-99v-527h-113v141q-31 -18 -65 -29t-80 -11q-85 0 -137.5 42.5t-52.5 110.5q0 28 10.5 52t28.5 41l-139 -2v96h303q19 0 36.5 -0.5t21.5 -1.5l-9 -93h-25q-58 0 -85 -21t-27 -58q0 -33 22.5 -52t57.5 -19q47 0 79.5 18.5t60.5 50.5v262h-472v95h684v-95z" />
    <glyph glyph-name="chadeva" unicode="&#x91b;" horiz-adv-x="738" 
d="M320 96q75 0 134.5 26.5t94 72t34.5 104.5q0 38 -17.5 65.5t-54.5 27.5q-25 0 -37 -13t-12 -32q0 -25 21 -45t69 -32l-43 -79q-79 24 -116 64t-37 91q0 48 27.5 81t80.5 43v57h-464v95h752v-95h-174v-62q54 -16 86.5 -58.5t32.5 -113.5q0 -54 -24.5 -106t-72.5 -94
t-118.5 -67.5t-163.5 -25.5q-113 0 -168 42t-55 108q0 19 6 39t20 37q-40 21 -62 52t-22 72q0 60 46.5 93.5t127.5 33.5q19 0 46 -2.5t44 -6.5l-8 -91q-14 5 -32 8t-39 3q-71 0 -71 -47q0 -20 17 -32.5t44 -18.5q28 7 61 7q13 0 26 -1t20 -2l-9 -89q-5 1 -12.5 1h-15.5
q-76 0 -76 -51q0 -31 30 -45t84 -14z" />
    <glyph glyph-name="jadeva" unicode="&#x91c;" horiz-adv-x="788" 
d="M705 527v-527h-114v346h-106q-40 0 -59 2q30 -29 47 -63.5t17 -72.5q0 -72 -47 -108t-115 -36q-58 0 -111 28.5t-101.5 99t-91.5 194.5l98 36q44 -128 91.5 -194.5t105.5 -66.5q26 0 42.5 14.5t16.5 44.5q0 39 -27.5 73.5t-72.5 61.5l38 82h275v86h-591v95h803v-95h-98z
" />
    <glyph glyph-name="jhadeva" unicode="&#x91d;" horiz-adv-x="789" 
d="M273 208q-28 0 -57.5 -6t-54.5 -17q-31 15 -57.5 38.5t-43 53t-16.5 63.5q0 30 10.5 51t27.5 35q23 18 54.5 25.5t89.5 7.5h76v68h-302v95h803v-95h-97v-527h-114v196q-23 -7 -48.5 -10t-57.5 -3q-10 0 -21 1q3 -15 3 -31q0 -62 -40 -98.5t-114 -46.5q28 -11 59.5 -22
t63.5 -21l-41 -86q-63 29 -120 60t-104 62q-59 3 -93.5 19t-34.5 57q0 29 17.5 44.5t41.5 15.5q45 0 95 -45q15 -2 28 -2q62 0 95 16.5t33 48.5q0 25 -19 39t-62 14zM476 277q37 0 64.5 4.5t51.5 12.5v233h-176v-156h-199q-22 0 -31.5 -2.5t-16.5 -6.5q-13 -10 -13 -26
t8.5 -28t20.5 -22q44 14 102 14q52 0 92 -16q22 -3 48 -5t49 -2z" />
    <glyph glyph-name="nyadeva" unicode="&#x91e;" horiz-adv-x="796" 
d="M204 420q34 15 66.5 21.5t61.5 6.5q71 0 120.5 -33t63.5 -93q8 -1 16 -1q19 0 36 3t31 9v194h-599v95h810v-95h-97v-527h-114v241q-35 -8 -76 -8h-6q-11 -52 -44 -81t-74.5 -40.5t-79.5 -11.5q-89 0 -164.5 52t-131.5 174l97 40q75 -168 191 -168q50 0 75.5 21.5
t25.5 57.5q0 38 -24.5 55.5t-60.5 17.5q-24 0 -44.5 -6t-43.5 -16z" />
    <glyph glyph-name="ttadeva" unicode="&#x91f;" horiz-adv-x="527" 
d="M541 527h-143v-192h-63q-52 0 -81.5 -6.5t-50.5 -19.5q-50 -32 -50 -90q0 -63 42.5 -91.5t103.5 -28.5q51 0 91 12.5t81 34.5l37 -98q-46 -21 -96 -34.5t-114 -13.5q-75 0 -133.5 26.5t-91.5 76.5t-33 121q0 65 33 110t88 69t123 26v98h-284v95h541v-95z" />
    <glyph glyph-name="tthadeva" unicode="&#x920;" horiz-adv-x="606" 
d="M620 527h-222v-106q81 -31 124.5 -90t43.5 -131t-35.5 -116t-94 -64t-128.5 -20q-80 0 -140.5 25t-94 74.5t-33.5 122.5q0 66 32.5 111.5t88 69.5t123.5 26v98h-284v95h620v-95zM304 97q64 0 106 26t42 83q0 42 -26 75.5t-78 53.5h-16q-47 0 -76.5 -6.5t-49.5 -18.5
q-53 -32 -53 -94q0 -61 43 -90t108 -29z" />
    <glyph glyph-name="ddadeva" unicode="&#x921;" horiz-adv-x="603" 
d="M368 208q-58 0 -112 -23q-30 15 -57 38.5t-43.5 53t-16.5 63.5q0 30 10.5 51t27.5 35q23 18 55 25.5t90 7.5h75v68h-397v95h617v-95h-106v-156h-199q-22 0 -31.5 -2.5t-16.5 -6.5q-13 -10 -13 -26t9 -28t20 -22q44 14 102 14q84 0 132.5 -39t48.5 -107q0 -66 -52 -110
t-159 -44q-111 0 -193.5 45.5t-140.5 110.5l84 67q55 -60 113 -92.5t134 -32.5q53 0 76.5 16t23.5 43q0 24 -19 37.5t-62 13.5z" />
    <glyph glyph-name="ddhadeva" unicode="&#x922;" horiz-adv-x="587" 
d="M321 0q-84 0 -147.5 27.5t-98.5 79.5t-35 125q0 69 34.5 116.5t94.5 72.5t136 28v78h-305v95h601v-95h-182v-173h-66q-61 0 -94 -9t-54 -22q-25 -17 -38.5 -41t-13.5 -59q0 -93 94 -122q-8 28 -8 59q0 56 40 95t123 39q54 0 88 -19t50.5 -49.5t16.5 -65.5
q0 -71 -62.5 -115.5t-173.5 -44.5zM338 144q0 -27 10 -52q104 4 104 67q0 24 -14 37.5t-36 13.5q-32 0 -48 -19t-16 -47z" />
    <glyph glyph-name="nnadeva" unicode="&#x923;" horiz-adv-x="770" 
d="M686 527v-527h-114v527h-119v-210q0 -50 -9.5 -80.5t-29.5 -54.5q-23 -26 -60.5 -40t-90.5 -14q-103 0 -152 61q-19 25 -29 61t-10 98v179h-72v95h784v-95h-98zM262 223q44 0 61 27q10 15 13 33t3 58v186h-153v-186q0 -37 3.5 -55.5t11.5 -32.5q18 -30 61 -30z" />
    <glyph glyph-name="tadeva" unicode="&#x924;" horiz-adv-x="604" 
d="M520 527v-527h-114v310h-98q-57 0 -85 -5.5t-46 -20.5q-22 -18 -22 -55q0 -40 33 -79.5t97 -89.5l-74 -75q-47 39 -85.5 80.5t-61.5 85.5t-23 93q0 36 13.5 64.5t34.5 47.5q30 26 72 37.5t116 11.5h129v122h-406v95h618v-95h-98z" />
    <glyph glyph-name="thadeva" unicode="&#x925;" horiz-adv-x="689" 
d="M606 527v-527h-114v159q-67 -43 -165 -43q-92 0 -152.5 52.5t-85.5 153.5q94 20 131 55t37 87q0 40 -19 63.5t-55 23.5q-23 0 -35.5 -11t-12.5 -28q0 -21 15.5 -33.5t55.5 -17.5l-21 -81q-67 9 -104 43.5t-37 91.5q0 60 42 88.5t102 28.5q50 0 92 -19t67 -57t25 -96
q0 -63 -34 -112.5t-112 -80.5q19 -28 45 -42t64 -14q50 0 87.5 19t69.5 53v244h-70v95h281v-95h-97z" />
    <glyph glyph-name="dadeva" unicode="&#x926;" horiz-adv-x="544" 
d="M422 -64q-21 33 -39.5 69l-31.5 63q-26 -3 -58 -3q-45 0 -89.5 10.5t-81.5 34t-59.5 63t-22.5 97.5q0 44 16 76t44 54q32 27 78 40.5t103 15.5v71h-281v95h558v-95h-163v-167h-50q-58 0 -91.5 -5.5t-56.5 -18.5q-44 -25 -44 -75q0 -44 34.5 -72t112.5 -28h9.5t11.5 1
q-4 15 -4 26q0 36 24.5 51.5t53.5 15.5q49 0 75.5 -27t26.5 -62q0 -34 -15 -51.5t-39 -27.5q27 -48 72 -109z" />
    <glyph glyph-name="dhadeva" unicode="&#x927;" horiz-adv-x="660" 
d="M674 527h-98v-527h-114v135q-34 -20 -69 -31.5t-89 -11.5q-88 0 -138.5 42t-50.5 111q0 24 7.5 47.5t22.5 42.5q-45 21 -74 59.5t-29 94.5q0 41 20.5 73.5t56 51t81.5 18.5q64 0 101.5 -30.5t37.5 -76.5q0 -26 -10 -50t-32 -44l-70 45q16 15 16 35q0 37 -41 37
q-26 0 -43 -17t-17 -46q0 -42 31 -62.5t68 -25.5q30 7 64 7q13 0 27 -1t22 -2l-7 -91q-5 1 -12.5 1.5t-14.5 0.5q-44 0 -67.5 -16.5t-23.5 -45.5q0 -33 24 -48t61 -15q51 0 87 22t61 50v268h-58v95h270v-95z" />
    <glyph glyph-name="nadeva" unicode="&#x928;" horiz-adv-x="594" 
d="M0 622h608v-95h-97v-527h-114v277h-167v-36q0 -68 -60 -68q-21 0 -45 13t-45 34t-34 45.5t-13 46.5q0 25 13.5 43t53.5 18h297v154h-397v95z" />
    <glyph glyph-name="nnnadeva" unicode="&#x929;" horiz-adv-x="594" 
d="M0 622h608v-95h-97v-527h-114v277h-167v-36q0 -68 -60 -68q-21 0 -45 13t-45 34t-34 45.5t-13 46.5q0 25 13.5 43t53.5 18h297v154h-397v95zM115 21q0 28 19.5 48.5t47.5 20.5t47 -20.5t19 -48.5q0 -29 -19 -49t-47 -20t-47.5 20t-19.5 49z" />
    <glyph glyph-name="padeva" unicode="&#x92a;" horiz-adv-x="596" 
d="M513 527v-527h-114v172q-33 -19 -66.5 -28.5t-79.5 -9.5q-44 0 -77.5 13.5t-54.5 35.5q-25 28 -37 64.5t-12 102.5v177h-72v95h610v-95h-97zM399 527h-213v-168q0 -53 6 -74.5t20 -35.5q19 -20 62 -20q38 0 71.5 19.5t53.5 39.5v239z" />
    <glyph glyph-name="phadeva" unicode="&#x92b;" horiz-adv-x="802" 
d="M494 527v-161q49 34 112 34q69 0 112.5 -43t43.5 -120q0 -46 -16 -99t-52 -106l-100 55q23 31 39 68t16 74q0 41 -17.5 59t-45.5 18q-25 0 -49 -16t-43 -37v-253h-114v170q-27 -17 -58.5 -26.5t-71.5 -9.5q-44 0 -77 14t-53 37q-26 28 -37 64t-11 99v179h-72v95h817v-95
h-323zM186 527v-171q0 -50 6 -71t19 -36q19 -20 57 -20q36 0 63.5 15t48.5 36v247h-194z" />
    <glyph glyph-name="badeva" unicode="&#x92c;" horiz-adv-x="602" 
d="M616 527h-98v-527h-114v140q-33 -19 -70 -30t-92 -11q-56 0 -102 20.5t-73 59.5t-27 96q0 85 60 133t157 48q33 0 66 -2.5t50 -6.5l-9 -93q-18 4 -41 6.5t-46 2.5q-12 0 -22 -1l109 -136q11 8 21 16.5t19 18.5v266h-404v95h616v-95zM152 276q0 -46 29 -66t72 -20
q25 0 49 6l-117 146q-33 -22 -33 -66z" />
    <glyph glyph-name="bhadeva" unicode="&#x92d;" horiz-adv-x="747" 
d="M186 632q89 0 136 -47q20 -19 33 -53t13 -97v-108h181v200h-111v95h323v-95h-98v-527h-114v232h-181v-24q0 -40 -17 -56.5t-45 -16.5q-20 0 -43.5 13t-44.5 34t-34 45t-13 46q0 23 14 38.5t53 15.5h17v103q0 40 -5 61t-14 35q-18 25 -54 25q-23 0 -35 -11t-12 -28
q0 -23 20 -36t67 -15l-8 -84q-76 6 -123 38t-47 99q0 62 42 90t100 28z" />
    <glyph glyph-name="madeva" unicode="&#x92e;" horiz-adv-x="628" 
d="M545 527v-527h-115v232h-199v-25q0 -39 -16.5 -55.5t-44.5 -16.5q-21 0 -44.5 13t-44.5 34t-34 45t-13 46q0 23 14 38.5t53 15.5h16v200h-117v95h643v-95h-98zM430 527h-199v-200h199v200z" />
    <glyph glyph-name="yadeva" unicode="&#x92f;" horiz-adv-x="614" 
d="M629 622v-95h-98v-527h-114v160q-32 -21 -70 -32.5t-85 -11.5q-65 0 -112.5 30t-76.5 82.5t-41 120.5q59 11 88 34.5t29 66.5q0 22 -8 41.5t-19 35.5h-122v95h629zM156 293q17 -40 44.5 -61t70.5 -21q44 0 81.5 19.5t64.5 52.5v244h-182q12 -23 19.5 -47t7.5 -51
q0 -98 -106 -136z" />
    <glyph glyph-name="radeva" unicode="&#x930;" horiz-adv-x="427" 
d="M409 61l-75 -76q-88 74 -158.5 143.5t-105.5 116.5q-22 30 -29 50t-7 37q0 23 17 45t57 22q48 0 83 -39q60 36 60 102q0 18 -2.5 34.5t-7.5 30.5h-241v95h442v-95h-89q6 -15 9 -35t3 -47q0 -74 -44.5 -121t-120.5 -76q41 -44 96 -93.5t113 -93.5z" />
    <glyph glyph-name="rradeva" unicode="&#x931;" horiz-adv-x="427" 
d="M409 61l-75 -76q-88 74 -158.5 143.5t-105.5 116.5q-22 30 -29 50t-7 37q0 23 17 45t57 22q48 0 83 -39q60 36 60 102q0 18 -2.5 34.5t-7.5 30.5h-241v95h442v-95h-89q6 -15 9 -35t3 -47q0 -74 -44.5 -121t-120.5 -76q41 -44 96 -93.5t113 -93.5zM49 27q0 26 17 43.5
t42 17.5t42 -17.5t17 -43.5t-17 -44t-42 -18t-42 18t-17 44z" />
    <glyph glyph-name="ladeva" unicode="&#x932;" horiz-adv-x="715" 
d="M0 527v95h730v-95h-98v-527h-114v332h-2q-22 0 -45.5 -11t-45 -41t-36.5 -85l-107 33q10 37 25 67q-18 15 -37.5 24t-43.5 9q-34 0 -53 -19t-19 -48q0 -31 17.5 -59.5t54 -62t94.5 -79.5l-75 -75q-98 80 -151.5 145t-53.5 139q0 57 25.5 91.5t64 50t76.5 15.5
q48 0 85.5 -13t73.5 -40q60 52 148 52h5v102h-518z" />
    <glyph glyph-name="lladeva" unicode="&#x933;" horiz-adv-x="788" 
d="M0 527v95h802v-95h-181v-91q56 -17 91.5 -66t35.5 -127q0 -92 -50.5 -145t-135.5 -53q-52 0 -94 18.5t-80 52.5q-33 -44 -73.5 -57.5t-87.5 -13.5q-53 0 -95 23t-67 68t-25 111q0 93 51.5 145.5t134.5 52.5q52 0 93.5 -18.5t79.5 -52.5q24 32 51 47t57 20v86h-507z
M431 195v-1q27 -25 53.5 -39t56.5 -14q35 0 64 24.5t29 83.5q0 55 -24 77.5t-53 22.5q-36 0 -60 -25.5t-49 -86.5zM154 241q0 -55 23 -77.5t52 -22.5q37 0 61 24.5t49 88.5l17 41l1 2q-27 25 -54 38.5t-57 13.5q-34 0 -63 -24.5t-29 -83.5z" />
    <glyph glyph-name="llladeva" unicode="&#x934;" horiz-adv-x="788" 
d="M0 527v95h802v-95h-181v-91q56 -17 91.5 -66t35.5 -127q0 -92 -50.5 -145t-135.5 -53q-52 0 -94 18.5t-80 52.5q-33 -44 -73.5 -57.5t-87.5 -13.5q-53 0 -95 23t-67 68t-25 111q0 93 51.5 145.5t134.5 52.5q52 0 93.5 -18.5t79.5 -52.5q24 32 51 47t57 20v86h-507z
M431 195v-1q27 -25 53.5 -39t56.5 -14q35 0 64 24.5t29 83.5q0 55 -24 77.5t-53 22.5q-36 0 -60 -25.5t-49 -86.5zM154 241q0 -55 23 -77.5t52 -22.5q37 0 61 24.5t49 88.5l17 41l1 2q-27 25 -54 38.5t-57 13.5q-34 0 -63 -24.5t-29 -83.5zM154 -90q0 28 19.5 48.5
t47.5 20.5t47 -20.5t19 -48.5q0 -29 -19 -49t-47 -20t-47.5 20t-19.5 49z" />
    <glyph glyph-name="vadeva" unicode="&#x935;" horiz-adv-x="587" 
d="M602 527h-99v-527h-114v139q-32 -19 -67 -29.5t-83 -10.5q-57 0 -102 20.5t-71 59.5t-26 96q0 85 58.5 133t154.5 48q27 0 58 -2.5t47 -6.5l-8 -97q-17 4 -38.5 6.5t-42.5 2.5q-56 0 -85.5 -22t-29.5 -61q0 -44 27.5 -62.5t65.5 -18.5q47 0 81.5 18.5t60.5 46.5v267h-389
v95h602v-95z" />
    <glyph glyph-name="shadeva" unicode="&#x936;" horiz-adv-x="724" 
d="M131 164q-39 0 -66 20t-27 58q0 33 20.5 52t55.5 19q20 0 42.5 -8t49.5 -27q44 17 72 57t28 99q0 54 -25.5 83t-65.5 29q-50 0 -50 -42q0 -14 8.5 -27.5t32.5 -24t70 -13.5l-24 -82q-98 7 -145.5 49t-47.5 100q0 55 40 90.5t116 35.5q53 0 99.5 -22t75 -66.5t28.5 -112.5
q0 -70 -33.5 -129.5t-93.5 -95.5q39 -35 74.5 -75t64.5 -77l-86 -59q-44 59 -81.5 101.5t-69.5 73.5q-30 -6 -62 -6zM640 527v-527h-114v527h-80v95h292v-95h-98z" />
    <glyph glyph-name="ssadeva" unicode="&#x937;" horiz-adv-x="607" 
d="M622 622v-95h-98v-527h-114v174q-35 -19 -70 -29.5t-83 -10.5q-45 0 -79 13.5t-56 35.5q-26 28 -38 64.5t-12 102.5v177h-72v95h622zM410 527h-178l178 -231v231zM210 249q20 -20 64 -20q23 0 44.5 6t39.5 16l-175 228v-120q0 -53 6.5 -74.5t20.5 -35.5z" />
    <glyph glyph-name="sadeva" unicode="&#x938;" horiz-adv-x="718" 
d="M635 527v-527h-114v246q-28 -7 -56.5 -9.5t-62.5 -2.5q-53 0 -99 9t-77 22q-14 -8 -30 -15q38 -47 89 -96.5t107 -94.5l-73 -74q-83 74 -149 143.5t-101 116.5q-22 30 -28.5 50t-6.5 37q0 23 17 45t57 22q46 0 79 -35q14 20 19.5 44.5t5.5 49.5q0 19 -3 37t-7 32h-202v95
h733v-95h-98zM391 329q37 0 67.5 3.5t62.5 12.5v182h-207q5 -15 8.5 -35t3.5 -47q0 -34 -7 -60.5t-20 -47.5q21 -4 44 -6t48 -2z" />
    <glyph glyph-name="hadeva" unicode="&#x939;" horiz-adv-x="555" 
d="M330 71q31 8 50.5 22t19.5 39q0 29 -25.5 45t-82.5 16q-63 0 -95.5 -24t-32.5 -65q0 -27 11.5 -52.5t43.5 -57.5t94 -77l-75 -76q-88 71 -138 132.5t-50 137.5q0 38 14.5 67.5t40.5 51.5q-19 20 -31 46t-12 61q0 30 10.5 51.5t29.5 35.5q24 20 56.5 27.5t86.5 7.5h113v68
h-358v95h570v-95h-98v-163h-225q-29 0 -40.5 -2.5t-19.5 -9.5q-14 -11 -14 -31q0 -24 21 -45q48 13 102 13q76 0 123.5 -22t70 -56.5t22.5 -74.5q0 -62 -38 -100t-111 -56z" />
    <glyph glyph-name="oevowelsigndeva" unicode="&#x93a;" 
d="M-197 616v189h114v-189h-114z" />
    <glyph glyph-name="ooevowelsigndeva" unicode="&#x93b;" horiz-adv-x="281" 
d="M197 527v-527h-114v527h-83v95h295v-95h-98zM84 616v189h114v-189h-114z" />
    <glyph glyph-name="nuktadeva" unicode="&#x93c;" 
d="M-349 -134q0 28 19.5 48.5t47.5 20.5t47 -20.5t19 -48.5q0 -29 -19 -49t-47 -20t-47.5 20t-19.5 49z" />
    <glyph glyph-name="avagrahadeva" unicode="&#x93d;" horiz-adv-x="504" 
d="M467 185q0 -67 -47.5 -108t-131.5 -41q-52 0 -96.5 18.5t-86 62t-82.5 120.5l94 48q42 -73 79.5 -112t89.5 -39q28 0 47 13.5t19 42.5q0 18 -7.5 34.5t-28 37.5t-60.5 53q-46 37 -72.5 66.5t-37 55t-10.5 52.5q0 68 51 102q22 15 54.5 23t101.5 8h102v-95h-109
q-32 0 -46 -2t-24 -8q-16 -10 -16 -30q0 -13 8 -26.5t29 -32t58 -48.5q65 -52 93.5 -94t28.5 -101z" />
    <glyph glyph-name="aavowelsigndeva" unicode="&#x93e;" horiz-adv-x="281" 
d="M197 527v-527h-114v527h-83v95h295v-95h-98z" />
    <glyph glyph-name="ivowelsigndeva" unicode="&#x93f;" horiz-adv-x="281" 
d="M83 527h-83v95h77q-12 25 -19.5 49.5t-7.5 51.5q0 79 61 126t174 47q105 0 191.5 -37.5t157.5 -101t129 -142.5h-127q-74 90 -157.5 137.5t-175.5 47.5q-67 0 -102.5 -26t-35.5 -71q0 -24 7.5 -44.5t16.5 -36.5h106v-95h-98v-527h-114v527z" />
    <glyph glyph-name="iivowelsigndeva" unicode="&#x940;" horiz-adv-x="281" 
d="M-212 615q-18 35 -26 65t-8 59q0 71 48 114t131 43q73 0 121.5 -33.5t80 -95t54.5 -145.5h106v-95h-98v-527h-114v527h-83v95h86q-26 89 -59 134t-83 45q-38 0 -57 -22t-19 -57q0 -32 9 -57.5t21 -50.5z" />
    <glyph glyph-name="uvowelsigndeva" unicode="&#x941;" 
d="M-258 0q58 23 115 23q78 0 122 -41.5t44 -105.5q0 -63 -47 -103.5t-134 -40.5q-104 0 -177 45.5t-137 121.5l79 57q61 -70 113 -102t117 -32q85 0 85 59q0 29 -20.5 41t-46.5 12q-23 0 -42.5 -5t-38.5 -13z" />
    <glyph glyph-name="uuvowelsigndeva" unicode="&#x942;" 
d="M-77 -245q-57 -23 -114 -23q-78 0 -122.5 42t-44.5 102q0 64 47 105.5t130 41.5q75 0 132 -28t102.5 -75t84.5 -103l-84 -51q-51 80 -105.5 124t-121.5 44q-40 0 -62 -15t-22 -43q0 -30 20.5 -42t47.5 -12q23 0 42.5 5t37.5 14z" />
    <glyph glyph-name="rvocalicvowelsigndeva" unicode="&#x943;" 
d="M38 -233q-26 -13 -61 -24t-82 -11q-75 0 -121.5 40t-46.5 104q0 66 48.5 108t139.5 48l10 -89q-54 -5 -75.5 -23.5t-21.5 -44.5q0 -27 19 -40t49 -13q27 0 50.5 7t57.5 24z" />
    <glyph glyph-name="ecandravowelsigndeva" unicode="&#x945;" 
d="M68 861q-26 -107 -84.5 -151.5t-142.5 -44.5q-77 0 -137 46.5t-97 148.5l91 33q26 -71 60 -105t86 -34q56 0 83.5 36.5t43.5 102.5z" />
    <glyph glyph-name="eshortvowelsigndeva" unicode="&#x946;" 
d="M-193 615q-17 67 -39 89.5t-56 22.5q-14 0 -25.5 -1t-25.5 -1q-49 0 -87 28.5t-68 110.5l89 32q17 -40 34 -59.5t54 -19.5q18 0 33 2t32 2q38 0 66 -16.5t51 -61t45 -128.5h-103z" />
    <glyph glyph-name="evowelsigndeva" unicode="&#x947;" 
d="M-193 615q-19 67 -36.5 107t-40.5 58.5t-57 18.5q-20 0 -37.5 -4.5t-31.5 -9.5l-31 93q23 9 47 13.5t53 4.5q40 0 73.5 -12t61.5 -42t53 -85t49 -142h-103z" />
    <glyph glyph-name="aivowelsigndeva" unicode="&#x948;" 
d="M-201 615q-28 34 -49 49.5t-40 20t-42 4.5q-22 0 -42 -6t-40 -16l-31 80q25 11 51 17.5t51 6.5q78 0 135 -71l4 1q-29 68 -57.5 91.5t-70.5 23.5q-19 0 -35.5 -4t-31.5 -10l-27 79q18 7 42 11t51 4q40 0 73.5 -10t62.5 -39t55 -85t51 -147h-110z" />
    <glyph glyph-name="ocandravowelsigndeva" unicode="&#x949;" horiz-adv-x="281" 
d="M197 527v-527h-114v527h-83v95h295v-95h-98zM331 861q-26 -107 -84.5 -151.5t-142.5 -44.5q-77 0 -137 46.5t-97 148.5l91 33q26 -71 60 -105t86 -34q56 0 83.5 36.5t43.5 102.5z" />
    <glyph glyph-name="oshortvowelsigndeva" unicode="&#x94a;" horiz-adv-x="281" 
d="M197 527v-527h-114v527h-83v95h295v-95h-98zM88 615q-17 67 -39 89.5t-56 22.5q-14 0 -25.5 -1t-25.5 -1q-49 0 -87 28.5t-68 110.5l89 32q17 -40 34 -59.5t54 -19.5q18 0 33 2t32 2q38 0 66 -16.5t51 -61t45 -128.5h-103z" />
    <glyph glyph-name="ovowelsigndeva" unicode="&#x94b;" horiz-adv-x="281" 
d="M197 527v-527h-114v527h-83v95h295v-95h-98zM88 615q-19 67 -36.5 107t-40.5 58.5t-57 18.5q-20 0 -37.5 -4.5t-31.5 -9.5l-31 93q23 9 47 13.5t53 4.5q40 0 73.5 -12t61.5 -42t53 -85t49 -142h-103z" />
    <glyph glyph-name="auvowelsigndeva" unicode="&#x94c;" horiz-adv-x="281" 
d="M197 527v-527h-114v527h-83v95h295v-95h-98zM80 615q-28 34 -49 49.5t-40 20t-42 4.5q-22 0 -42 -6t-40 -16l-31 80q25 11 51 17.5t51 6.5q78 0 135 -71l4 1q-29 68 -57.5 91.5t-70.5 23.5q-19 0 -35.5 -4t-31.5 -10l-27 79q18 7 42 11t51 4q40 0 73.5 -10t62.5 -39
t55 -85t51 -147h-110z" />
    <glyph glyph-name="viramadeva" unicode="&#x94d;" 
d="M-208 -39q14 4 30.5 5.5t32.5 1.5q69 0 120 -24.5t92 -66t78 -91.5l-78 -54q-53 74 -98.5 108.5t-109.5 34.5q-14 0 -26.5 -2t-22.5 -4z" />
    <glyph glyph-name="uni094E" unicode="&#x94e;" horiz-adv-x="295" 
d="M212 527v-527h-114v622h212v-95h-98z" />
    <glyph glyph-name="awvowelsigndeva" unicode="&#x94f;" horiz-adv-x="281" 
d="M197 527v-527h-114v527h-83v95h295v-95h-98zM55 615q-14 37 -32.5 49.5t-42.5 12.5q-16 0 -30.5 -1.5t-27.5 -1.5q-47 0 -84 24.5t-65 97.5l84 31q16 -37 34 -55t53 -18q17 0 32 1.5t30 1.5q47 0 78.5 -27t50.5 -105q7 17 10.5 31t3.5 28q0 29 -15 44t-41 24l-25 8
q-55 18 -77 44t-22 79v12l93 1q-1 -3 -1 -12q0 -21 10 -32t41 -21l31 -11q44 -14 69 -39t25 -75q0 -24 -6.5 -49t-14.5 -42h-161z" />
    <glyph glyph-name="omdeva" unicode="&#x950;" horiz-adv-x="972" 
d="M527 816q0 23 16.5 39.5t39.5 16.5q22 0 38.5 -16.5t16.5 -39.5q0 -22 -16.5 -39t-38.5 -17q-23 0 -39.5 17t-16.5 39zM810 836q-25 -108 -84 -152t-142 -44q-78 0 -138 46.5t-97 148.5l90 33q25 -74 60 -108.5t87 -34.5q56 0 84.5 36.5t43.5 107.5zM502 214
q0 -70 -46 -108t-127 -38q-61 0 -113 26t-99.5 87.5t-93.5 169.5l99 37q42 -106 90 -164.5t109 -58.5q32 0 50 16t18 48q0 29 -12 52.5t-34 44.5q-32 -7 -70 -8l-6 92q62 3 86.5 21t24.5 51q0 31 -21.5 43t-48.5 12q-34 0 -63 -9.5t-58 -24.5l-33 89q28 14 71 27t95 13
q82 0 126 -42t44 -106q0 -78 -63 -123q21 -22 45 -22q19 0 35.5 12.5t37.5 43.5l28 42q37 55 76.5 82.5t106.5 27.5q47 0 87 -20t64 -61.5t24 -103.5q0 -86 -48 -138t-145 -52q-46 0 -83.5 15.5t-68.5 41.5l65 73q20 -16 39.5 -25t44.5 -9q32 0 57 22t25 71q0 43 -18.5 67
t-46.5 24q-26 0 -44.5 -17.5t-40.5 -50.5l-23 -36q-31 -48 -63 -74t-84 -26q5 -17 5 -34z" />
    <glyph glyph-name="udattadeva" unicode="&#x951;" 
d="M-96 671h-89v207h89v-207z" />
    <glyph glyph-name="anudattadeva" unicode="&#x952;" 
d="M-434 -71h356v-83h-356v83z" />
    <glyph glyph-name="uni0953" unicode="&#x953;" 
d="M-176 683l-116 196h136l72 -196h-92z" />
    <glyph glyph-name="uni0954" unicode="&#x954;" 
d="M8 879l-115 -196h-92l72 196h135z" />
    <glyph glyph-name="candralongevowelsigndeva" unicode="&#x955;" 
d="M33 868q-23 -80 -71.5 -111t-122.5 -31q-70 0 -119.5 33.5t-80.5 107.5l83 29q21 -52 49 -74t69 -22q45 0 68.5 23.5t36.5 72.5zM-338 725h354v-72h-354v72z" />
    <glyph glyph-name="uevowelsigndeva" unicode="&#x956;" 
d="M-305 -195q-70 0 -121.5 19.5t-86.5 45.5l33 86q37 -26 78 -40.5t97 -14.5q55 0 96 14.5t80 40.5l32 -86q-34 -25 -86 -45t-122 -20z" />
    <glyph glyph-name="uuevowelsigndeva" unicode="&#x957;" 
d="M-305 -148q-63 0 -113.5 17t-90.5 42l28 76q35 -23 77 -38t99 -15q59 0 99.5 15t76.5 38l28 -76q-41 -25 -92 -42t-112 -17zM-305 -268q-65 0 -115.5 17t-88.5 37l27 71q41 -22 83 -32t94 -10q51 0 92.5 9.5t84.5 32.5l27 -71q-36 -20 -86.5 -37t-117.5 -17z" />
    <glyph glyph-name="qadeva" unicode="&#x958;" horiz-adv-x="800" 
d="M814 527h-323v-163q49 36 113 36q68 0 112 -43t44 -120q0 -46 -16 -99t-52 -106l-100 55q23 31 39 68t16 74q0 41 -17.5 59t-45.5 18q-25 0 -49 -16t-44 -39v-251h-114v144q-30 -20 -64 -32.5t-80 -12.5q-52 0 -96 20t-70.5 59.5t-26.5 98.5q0 55 26.5 95t73 62t108.5 22
q26 0 54.5 -2.5t43.5 -6.5l-8 -97q-15 4 -36 6.5t-40 2.5q-51 0 -79.5 -21.5t-28.5 -59.5q0 -45 27 -64t61 -19q43 0 76 19.5t59 46.5v266h-377v95h814v-95zM92 -14q0 28 19.5 48.5t47.5 20.5t47 -20.5t19 -48.5q0 -29 -19 -49t-47 -20t-47.5 20t-19.5 49z" />
    <glyph glyph-name="khhadeva" unicode="&#x959;" horiz-adv-x="867" 
d="M783 527v-527h-114v43q-39 -20 -84.5 -29.5t-94.5 -9.5q-93 0 -170 33t-138 86t-107 112q-25 33 -33 55.5t-8 40.5q0 24 17 46t57 22q46 0 79 -35q14 20 19.5 44.5t5.5 49.5q0 37 -10 69h-202v95h881v-95h-98zM557 255q35 0 62.5 12.5t49.5 31.5v228h-355q6 -16 9 -35.5
t3 -46.5q0 -77 -36.5 -123.5t-93.5 -73.5q56 -64 126.5 -106t168.5 -42q58 0 100.5 12t77.5 32v56q-24 -14 -56 -23t-74 -9q-74 0 -121.5 40.5t-47.5 111.5t48.5 112.5t131.5 41.5q16 0 43 -2t45 -7l-9 -86q-13 3 -29.5 5.5t-35.5 2.5q-40 0 -62.5 -17.5t-22.5 -49.5
q0 -34 22.5 -49.5t55.5 -15.5zM86 -15q0 28 19.5 48.5t47.5 20.5t47 -20.5t19 -48.5q0 -29 -19 -49t-47 -20t-47.5 20t-19.5 49z" />
    <glyph glyph-name="ghhadeva" unicode="&#x95a;" horiz-adv-x="592" 
d="M232 527v-298q0 -68 -60 -68q-22 0 -45.5 13t-44.5 34t-34 45.5t-13 47.5q0 24 13.5 42t53.5 18h16v166h-118v95h607v-95h-98v-527h-114v527h-163zM92 12q0 28 19.5 48.5t47.5 20.5t47 -20.5t19 -48.5q0 -29 -19 -49t-47 -20t-47.5 20t-19.5 49z" />
    <glyph glyph-name="zadeva" unicode="&#x95b;" horiz-adv-x="788" 
d="M705 527v-527h-114v346h-106q-40 0 -59 2q30 -29 47 -63.5t17 -72.5q0 -72 -47 -108t-115 -36q-58 0 -111 28.5t-101.5 99t-91.5 194.5l98 36q44 -128 91.5 -194.5t105.5 -66.5q26 0 42.5 14.5t16.5 44.5q0 39 -27.5 73.5t-72.5 61.5l38 82h275v86h-591v95h803v-95h-98z
M227 -69q0 28 19.5 48.5t47.5 20.5t47 -20.5t19 -48.5q0 -29 -19 -49t-47 -20t-47.5 20t-19.5 49z" />
    <glyph glyph-name="dddhadeva" unicode="&#x95c;" horiz-adv-x="603" 
d="M368 208q-58 0 -112 -23q-30 15 -57 38.5t-43.5 53t-16.5 63.5q0 30 10.5 51t27.5 35q23 18 55 25.5t90 7.5h75v68h-397v95h617v-95h-106v-156h-199q-22 0 -31.5 -2.5t-16.5 -6.5q-13 -10 -13 -26t9 -28t20 -22q44 14 102 14q84 0 132.5 -39t48.5 -107q0 -66 -52 -110
t-159 -44q-111 0 -193.5 45.5t-140.5 110.5l84 67q55 -60 113 -92.5t134 -32.5q53 0 76.5 16t23.5 43q0 24 -19 37.5t-62 13.5zM262 -134q0 28 19.5 48.5t47.5 20.5t47 -20.5t19 -48.5q0 -29 -19 -49t-47 -20t-47.5 20t-19.5 49z" />
    <glyph glyph-name="rhadeva" unicode="&#x95d;" horiz-adv-x="587" 
d="M321 0q-84 0 -147.5 27.5t-98.5 79.5t-35 125q0 69 34.5 116.5t94.5 72.5t136 28v78h-305v95h601v-95h-182v-173h-66q-61 0 -94 -9t-54 -22q-25 -17 -38.5 -41t-13.5 -59q0 -93 94 -122q-8 28 -8 59q0 56 40 95t123 39q54 0 88 -19t50.5 -49.5t16.5 -65.5
q0 -71 -62.5 -115.5t-173.5 -44.5zM338 144q0 -27 10 -52q104 4 104 67q0 24 -14 37.5t-36 13.5q-32 0 -48 -19t-16 -47zM223 -134q0 28 19.5 48.5t47.5 20.5t47 -20.5t19 -48.5q0 -29 -19 -49t-47 -20t-47.5 20t-19.5 49z" />
    <glyph glyph-name="fadeva" unicode="&#x95e;" horiz-adv-x="802" 
d="M494 527v-161q49 34 112 34q69 0 112.5 -43t43.5 -120q0 -46 -16 -99t-52 -106l-100 55q23 31 39 68t16 74q0 41 -17.5 59t-45.5 18q-25 0 -49 -16t-43 -37v-253h-114v170q-27 -17 -58.5 -26.5t-71.5 -9.5q-44 0 -77 14t-53 37q-26 28 -37 64t-11 99v179h-72v95h817v-95
h-323zM186 527v-171q0 -50 6 -71t19 -36q19 -20 57 -20q36 0 63.5 15t48.5 36v247h-194zM92 -2q0 28 19.5 48.5t47.5 20.5t47 -20.5t19 -48.5q0 -29 -19 -49t-47 -20t-47.5 20t-19.5 49z" />
    <glyph glyph-name="yyadeva" unicode="&#x95f;" horiz-adv-x="614" 
d="M629 622v-95h-98v-527h-114v160q-32 -21 -70 -32.5t-85 -11.5q-65 0 -112.5 30t-76.5 82.5t-41 120.5q59 11 88 34.5t29 66.5q0 22 -8 41.5t-19 35.5h-122v95h629zM156 293q17 -40 44.5 -61t70.5 -21q44 0 81.5 19.5t64.5 52.5v244h-182q12 -23 19.5 -47t7.5 -51
q0 -98 -106 -136zM98 1q0 28 19.5 48.5t47.5 20.5t47 -20.5t19 -48.5q0 -29 -19 -49t-47 -20t-47.5 20t-19.5 49z" />
    <glyph glyph-name="rrvocalicdeva" unicode="&#x960;" horiz-adv-x="893" 
d="M129 51l-60 83l244 141q-35 40 -61.5 56.5t-61.5 16.5q-28 0 -56.5 -8t-69.5 -29l-38 95q40 19 79 30.5t83 11.5q40 0 70.5 -11t60.5 -37t66 -71v198h-385v95h907v-95h-408v-198q29 2 58.5 6t52.5 9q-5 14 -5 29q0 36 24 53.5t54 17.5q45 0 67.5 -24.5t22.5 -58.5
q0 -26 -12.5 -44t-29.5 -26q14 -25 29.5 -46.5l33.5 -46.5l-20 -35q-52 -4 -71.5 -20.5t-19.5 -35.5q0 -45 68 -45q28 0 51.5 6.5t58.5 22.5l32 -80q-26 -13 -61.5 -23.5t-82.5 -10.5q-8 0 -16 1q-9 -12 -9 -27q0 -44 69 -44q28 0 51.5 6.5t58.5 23.5l31 -80
q-26 -13 -61 -24t-82 -11q-77 0 -122.5 37t-45.5 95q0 29 13 54q-55 37 -55 101q0 36 22 67t65 49q-13 24 -20 39q-27 -10 -68 -16.5t-81 -8.5v-239h-114v211z" />
    <glyph glyph-name="llvocalicdeva" unicode="&#x961;" horiz-adv-x="735" 
d="M206 426q48 0 85.5 -13t73.5 -40q45 39 109 49v105h-474v95h750v-95h-163v-112q46 -15 76 -55t30 -105q0 -41 -8 -69t-22 -59q-70 -4 -92 -20.5t-22 -37.5q0 -45 68 -45q28 0 52 6.5t59 22.5l31 -79q-26 -13 -61.5 -23.5t-82.5 -10.5h-15q-10 -11 -10 -27q0 -44 69 -44
q28 0 51.5 6.5t58.5 22.5l32 -79q-26 -13 -61.5 -24t-82.5 -11q-77 0 -122.5 37t-45.5 95q0 29 13 54q-26 18 -40.5 43.5t-14.5 57.5q0 46 31.5 80t92.5 49q8 27 8 52q0 40 -18.5 59t-48.5 19q-20 0 -42.5 -10.5t-44 -40t-36.5 -84.5l-107 33q10 37 25 68q-18 14 -37.5 23
t-43.5 9q-34 0 -53 -19t-19 -48q0 -31 17.5 -59.5t54 -62t94.5 -79.5l-75 -75q-98 80 -151.5 145t-53.5 139q0 57 25.5 91.5t64 50t76.5 15.5z" />
    <glyph glyph-name="dandadeva" unicode="&#x964;" horiz-adv-x="391" 
d="M184 622h114v-622h-114v622z" />
    <glyph glyph-name="dbldandadeva" unicode="&#x965;" horiz-adv-x="623" 
d="M416 622h114v-622h-114v622zM184 622h114v-622h-114v622z" />
    <glyph glyph-name="zerodeva" unicode="&#x966;" horiz-adv-x="563" 
d="M281 105q-65 0 -114.5 27t-77.5 75.5t-28 113.5t28 113t77.5 74.5t115.5 26.5q64 0 114 -26.5t78 -75t28 -114.5q0 -65 -28.5 -113t-78 -74.5t-114.5 -26.5zM279 201q47 0 77 33t30 88t-28 86.5t-75 31.5t-76.5 -33t-29.5 -89q0 -55 27.5 -86t74.5 -31z" />
    <glyph glyph-name="onedeva" unicode="&#x967;" horiz-adv-x="563" 
d="M283 632q82 0 125.5 -39.5t43.5 -103.5q0 -38 -14.5 -74t-54 -76.5t-113.5 -92.5l113 -87q41 -31 57.5 -60t16.5 -66q0 -31 -12.5 -62t-40.5 -63l-88 63q12 13 18.5 26t6.5 29q0 18 -10 33t-33 34l-184 148l8 41q110 67 162.5 114.5t52.5 90.5q0 25 -15.5 39t-43.5 14
t-42 -12.5t-14 -31.5q0 -35 55 -55l-66 -62q-41 21 -66 51t-25 79q0 30 17 58.5t53 46.5t93 18z" />
    <glyph glyph-name="twodeva" unicode="&#x968;" horiz-adv-x="563" 
d="M496 48l-87 -60q-43 63 -84 114.5t-79 90.5q-25 -4 -50 -4q-40 0 -67 20.5t-27 57.5q0 33 21 51.5t56 18.5q20 0 39.5 -7t48.5 -29q35 15 59.5 48.5t24.5 80.5q0 56 -30.5 81t-78.5 25q-34 0 -62.5 -7.5t-64.5 -25.5l-35 91q40 18 83.5 28t95.5 10q59 0 106.5 -22.5
t74.5 -67t27 -112.5q0 -67 -32.5 -120t-87.5 -84q42 -41 80.5 -89t68.5 -89z" />
    <glyph glyph-name="threedeva" unicode="&#x969;" horiz-adv-x="563" 
d="M90 592q29 15 72 27.5t101 12.5q86 0 131.5 -41t45.5 -106t-48 -106q42 -20 61 -51t19 -70q0 -51 -29 -92t-85 -65q27 -26 53.5 -55.5t48.5 -58.5l-85 -59q-30 42 -61 80t-60 68q-24 -2 -50 -2q-42 0 -69.5 20.5t-27.5 56.5q0 34 20.5 53t55.5 19q22 0 43.5 -8.5
t54.5 -35.5q75 18 75 77q0 30 -19 47.5t-53 23.5q-39 -8 -84 -9l-5 92q78 2 105.5 21t27.5 51q0 31 -22 43t-53 12q-35 0 -67 -9.5t-63 -24.5z" />
    <glyph glyph-name="fourdeva" unicode="&#x96a;" horiz-adv-x="563" 
d="M456 139q0 -63 -46 -102t-126 -39q-51 0 -91.5 17.5t-64 49t-23.5 74.5q0 25 6.5 51t29 59.5t70.5 81.5q-53 49 -84 86t-45.5 65t-18.5 51t-4 44q0 14 2.5 27.5t6.5 27.5l115 -20q-7 -18 -7 -36q0 -20 7.5 -43t29.5 -54t68 -76q45 46 68.5 77.5t32 53.5t8.5 40
q0 17 -7 38l114 20q10 -27 10 -58q0 -30 -10.5 -61.5t-43.5 -73.5t-101 -105q49 -47 70.5 -81.5t27.5 -61.5t6 -52zM219 154q0 -25 15 -43t47 -18q29 0 44.5 16.5t15.5 41.5q0 21 -10.5 45.5t-49.5 66.5q-40 -41 -51 -65.5t-11 -43.5z" />
    <glyph glyph-name="fivedeva" unicode="&#x96b;" horiz-adv-x="563" 
d="M465 -67l-45 85t-45.5 93.5t-34.5 81.5q-11 -1 -24 -1q-46 0 -89.5 11t-78 37t-55 70t-20.5 111q0 47 14 104t45 107l117 -32q-29 -46 -46 -90t-17 -93q0 -131 127 -131q-2 15 -2 27q0 38 24.5 54t54.5 16q45 0 72.5 -25.5t27.5 -63.5q0 -32 -15 -52t-41 -31
q14 -33 36 -75.5l46 -85t45 -74.5z" />
    <glyph glyph-name="sixdeva" unicode="&#x96c;" horiz-adv-x="563" 
d="M461 -88q-26 44 -51 94.5t-38 83.5q-17 -1 -36 -1q-72 0 -120.5 25t-73 66t-24.5 90q0 26 10 52t31 47q-33 23 -51 55t-18 73q0 65 53.5 100t138.5 35q31 0 64.5 -2.5t53.5 -6.5l-9 -95q-18 4 -43 7.5t-54 3.5q-90 0 -90 -55q0 -41 49 -60q19 4 39 6t41 2q15 0 32 -1.5
t26 -3.5l-9 -93q-21 3 -49 3q-45 0 -72.5 -18.5t-27.5 -56.5q0 -40 30.5 -59.5t80.5 -19.5h1q-2 7 -2.5 13t-0.5 11q0 37 24 53t54 16q45 0 72.5 -25t27.5 -62q0 -30 -15.5 -49.5t-41.5 -30.5q16 -33 40 -74t50 -79z" />
    <glyph glyph-name="sevendeva" unicode="&#x96d;" horiz-adv-x="563" 
d="M533 271q0 -82 -24.5 -133t-67 -74.5t-97.5 -23.5q-67 0 -120 26t-91.5 87t-64 165.5t-38.5 262.5l108 16q15 -219 59 -339t133 -120q54 0 72.5 37t18.5 102q0 47 -9.5 88t-29 66t-48.5 25q-20 0 -30.5 -11.5t-10.5 -29.5q0 -23 20 -41t82 -23l-18 -88q-92 11 -138.5 52
t-46.5 106q0 58 37.5 92.5t104.5 34.5q60 0 105 -35.5t69.5 -98t24.5 -143.5z" />
    <glyph glyph-name="eightdeva" unicode="&#x96e;" horiz-adv-x="563" 
d="M282 0q-55 0 -103.5 18t-79 57.5t-30.5 102.5q0 29 8.5 58.5t31.5 67.5t69 93l193 235l92 -75l-204 -244q-30 -37 -46 -61t-22 -42t-6 -38q0 -38 27.5 -56t71.5 -18q53 0 97.5 16t93.5 49l47 -94q-48 -27 -106 -48t-134 -21z" />
    <glyph glyph-name="ninedeva" unicode="&#x96f;" horiz-adv-x="563" 
d="M60 456q0 48 23 88t65 64t97 24q86 0 135 -49t49 -124q0 -65 -35 -109t-108 -59l21.5 -14t20.5 -15l133 -103q41 -31 57.5 -60t16.5 -66q0 -31 -12.5 -62t-41.5 -63l-87 63q12 13 18 26t6 29q0 33 -43 67l-196 160q-47 38 -73 70.5t-36 64.5t-10 68zM170 457
q0 -36 19.5 -56.5t51.5 -20.5q33 0 53.5 22t20.5 57t-19.5 56t-51.5 21q-33 0 -53.5 -21.5t-20.5 -57.5z" />
    <glyph glyph-name="abbreviationsigndeva" unicode="&#x970;" horiz-adv-x="438" 
d="M222 270q-44 0 -79.5 18.5t-57 52t-21.5 78.5q0 41 20 75t55.5 53.5t82.5 19.5q45 0 80.5 -19t56.5 -52.5t21 -76.5t-21 -76.5t-56.5 -53t-80.5 -19.5zM222 351q32 0 51.5 19t19.5 49q0 29 -19.5 48t-51.5 19q-33 0 -52 -19.5t-19 -47.5q0 -31 20.5 -49.5t50.5 -18.5z
" />
    <glyph glyph-name="uni0971" unicode="&#x971;" horiz-adv-x="324" 
d="M101 584q0 29 19.5 49t47.5 20q29 0 48.5 -20t19.5 -49t-19.5 -49.5t-48.5 -20.5q-28 0 -47.5 20.5t-19.5 49.5z" />
    <glyph glyph-name="acandradeva" unicode="&#x972;" horiz-adv-x="814" 
d="M502 214q0 -70 -46 -108t-127 -38q-61 0 -113 26t-99.5 87.5t-93.5 169.5l99 37q42 -106 90 -164.5t109 -58.5q32 0 50 16t18 48q0 29 -12 52.5t-34 44.5q-32 -7 -70 -8l-6 92q62 3 86.5 21t24.5 51q0 31 -21.5 43t-48.5 12q-34 0 -63 -9.5t-58 -24.5l-33 89q28 14 71 27
t95 13q82 0 126 -42t44 -106q0 -75 -58 -119q6 -6 12 -13q30 -4 66 -4q31 0 56.5 3.5t50.5 10.5v165h-67v95h279v-95h-98v-527h-114v265q-22 -7 -44.5 -9.5t-47.5 -2.5q-13 0 -28 1q5 -19 5 -40zM868 861q-26 -107 -84.5 -151.5t-142.5 -44.5q-77 0 -137 46.5t-97 148.5
l91 33q26 -71 60 -105t86 -34q56 0 83.5 36.5t43.5 102.5z" />
    <glyph glyph-name="oedeva" unicode="&#x973;" horiz-adv-x="814" 
d="M502 214q0 -70 -46 -108t-127 -38q-61 0 -113 26t-99.5 87.5t-93.5 169.5l99 37q42 -106 90 -164.5t109 -58.5q32 0 50 16t18 48q0 29 -12 52.5t-34 44.5q-32 -7 -70 -8l-6 92q62 3 86.5 21t24.5 51q0 31 -21.5 43t-48.5 12q-34 0 -63 -9.5t-58 -24.5l-33 89q28 14 71 27
t95 13q82 0 126 -42t44 -106q0 -75 -58 -119q6 -6 12 -13q30 -4 66 -4q31 0 56.5 3.5t50.5 10.5v165h-67v95h279v-95h-98v-527h-114v265q-22 -7 -44.5 -9.5t-47.5 -2.5q-13 0 -28 1q5 -19 5 -40zM617 616v189h114v-189h-114z" />
    <glyph glyph-name="ooedeva" unicode="&#x974;" horiz-adv-x="1096" 
d="M502 214q0 -70 -46 -108t-127 -38q-61 0 -113 26t-99.5 87.5t-93.5 169.5l99 37q42 -106 90 -164.5t109 -58.5q32 0 50 16t18 48q0 29 -12 52.5t-34 44.5q-32 -7 -70 -8l-6 92q62 3 86.5 21t24.5 51q0 31 -21.5 43t-48.5 12q-34 0 -63 -9.5t-58 -24.5l-33 89q28 14 71 27
t95 13q82 0 126 -42t44 -106q0 -75 -58 -119q6 -6 12 -13q30 -4 66 -4q31 0 56.5 3.5t50.5 10.5v165h-67v95h560v-95h-98v-527h-114v527h-167v-527h-114v265q-22 -7 -44.5 -9.5t-47.5 -2.5q-13 0 -28 1q5 -19 5 -40zM899 616v189h114v-189h-114z" />
    <glyph glyph-name="awdeva" unicode="&#x975;" horiz-adv-x="1096" 
d="M502 214q0 -70 -46 -108t-127 -38q-61 0 -113 26t-99.5 87.5t-93.5 169.5l99 37q42 -106 90 -164.5t109 -58.5q32 0 50 16t18 48q0 29 -12 52.5t-34 44.5q-32 -7 -70 -8l-6 92q62 3 86.5 21t24.5 51q0 31 -21.5 43t-48.5 12q-34 0 -63 -9.5t-58 -24.5l-33 89q28 14 71 27
t95 13q82 0 126 -42t44 -106q0 -75 -58 -119q6 -6 12 -13q30 -4 66 -4q31 0 56.5 3.5t50.5 10.5v165h-67v95h560v-95h-98v-527h-114v527h-167v-527h-114v265q-22 -7 -44.5 -9.5t-47.5 -2.5q-13 0 -28 1q5 -19 5 -40zM870 615q-14 37 -32.5 49.5t-42.5 12.5q-16 0 -30.5 -1.5
t-27.5 -1.5q-47 0 -84 24.5t-65 97.5l84 31q16 -37 34 -55t53 -18q17 0 32 1.5t30 1.5q47 0 78.5 -27t50.5 -105q7 17 10.5 31t3.5 28q0 29 -15 44t-41 24l-25 8q-55 18 -77 44t-22 79v12l93 1q-1 -3 -1 -12q0 -21 10 -32t41 -21l31 -11q44 -14 69 -39t25 -75
q0 -24 -6.5 -49t-14.5 -42h-161z" />
    <glyph glyph-name="uedeva" unicode="&#x976;" horiz-adv-x="814" 
d="M502 214q0 -70 -46 -108t-127 -38q-61 0 -113 26t-99.5 87.5t-93.5 169.5l99 37q42 -106 90 -164.5t109 -58.5q32 0 50 16t18 48q0 29 -12 52.5t-34 44.5q-32 -7 -70 -8l-6 92q62 3 86.5 21t24.5 51q0 31 -21.5 43t-48.5 12q-34 0 -63 -9.5t-58 -24.5l-33 89q28 14 71 27
t95 13q82 0 126 -42t44 -106q0 -75 -58 -119q6 -6 12 -13q30 -4 66 -4q31 0 56.5 3.5t50.5 10.5v165h-67v95h279v-95h-98v-527h-114v265q-22 -7 -44.5 -9.5t-47.5 -2.5q-13 0 -28 1q5 -19 5 -40zM509 -195q-70 0 -121.5 19.5t-86.5 45.5l33 86q37 -26 78 -40.5t97 -14.5
q55 0 96 14.5t80 40.5l32 -86q-34 -25 -86 -45t-122 -20z" />
    <glyph glyph-name="uuedeva" unicode="&#x977;" horiz-adv-x="814" 
d="M502 214q0 -70 -46 -108t-127 -38q-61 0 -113 26t-99.5 87.5t-93.5 169.5l99 37q42 -106 90 -164.5t109 -58.5q32 0 50 16t18 48q0 29 -12 52.5t-34 44.5q-32 -7 -70 -8l-6 92q62 3 86.5 21t24.5 51q0 31 -21.5 43t-48.5 12q-34 0 -63 -9.5t-58 -24.5l-33 89q28 14 71 27
t95 13q82 0 126 -42t44 -106q0 -75 -58 -119q6 -6 12 -13q30 -4 66 -4q31 0 56.5 3.5t50.5 10.5v165h-67v95h279v-95h-98v-527h-114v265q-22 -7 -44.5 -9.5t-47.5 -2.5q-13 0 -28 1q5 -19 5 -40zM509 -148q-63 0 -113.5 17t-90.5 42l28 76q35 -23 77 -38t99 -15
q59 0 99.5 15t76.5 38l28 -76q-41 -25 -92 -42t-112 -17zM509 -268q-65 0 -115.5 17t-88.5 37l27 71q41 -22 83 -32t94 -10q51 0 92.5 9.5t84.5 32.5l27 -71q-36 -20 -86.5 -37t-117.5 -17z" />
    <glyph glyph-name="marwariddadeva" unicode="&#x978;" horiz-adv-x="584" 
d="M232 527v-108q21 3 40.5 4t36.5 1q87 0 139 -25.5t74.5 -70t22.5 -99.5q0 -45 -16.5 -99.5t-52.5 -109.5l-100 56q23 33 38.5 70.5t15.5 76.5q0 51 -28.5 78.5t-93.5 27.5q-37 0 -76 -8v-62q0 -67 -60 -67q-22 0 -45.5 13t-44.5 33.5t-34 43t-13 42.5q0 29 20.5 46.5
t62.5 28.5v128h-118v95h599v-95h-367z" />
    <glyph glyph-name="zhadeva" unicode="&#x979;" horiz-adv-x="788" 
d="M705 527v-527h-114v361h-106h-31.5t-23.5 1q28 -26 44 -57.5t16 -65.5q0 -67 -47 -101t-115 -34q-58 0 -111 27t-101.5 92.5t-91.5 182.5l98 35q44 -118 91.5 -178.5t105.5 -60.5q26 0 42.5 12.5t16.5 39.5q0 34 -27.5 65t-72.5 55l38 82h275v71h-591v95h803v-95h-98z
M360 36q0 25 16.5 42t39.5 17t39.5 -17t16.5 -42q0 -24 -16.5 -41t-39.5 -17t-39.5 17t-16.5 41zM175 36q0 25 16.5 42t38.5 17q23 0 40 -17t17 -42q0 -24 -17 -41t-40 -17q-22 0 -38.5 17t-16.5 41zM267 -62q0 24 16.5 41t39.5 17t39.5 -17t16.5 -41q0 -25 -16.5 -42
t-39.5 -17t-39.5 17t-16.5 42z" />
    <glyph glyph-name="heavyyadeva" unicode="&#x97a;" horiz-adv-x="614" 
d="M531 527v-527h-114v157q-30 -18 -67.5 -29.5t-84.5 -11.5q-67 0 -114.5 30t-77 82.5t-41.5 120.5q59 11 88 34.5t29 66.5q0 22 -8 41.5t-20 35.5h-121v95h629v-95h-98zM417 527h-187l6 -12l181 -233v245zM292 329l-20.5 28l-21.5 28q-16 -64 -94 -92q18 -40 46 -61
t73 -21q28 0 51 6t42 18z" />
    <glyph glyph-name="gabardeva" unicode="&#x97b;" horiz-adv-x="592" 
d="M82 71h313v456h-163v-278q0 -68 -60 -68q-22 0 -45.5 13t-44.5 34t-34 45.5t-13 47.5q0 25 13.5 42.5t53.5 17.5h16v146h-118v95h607v-95h-98v-539h-427v83z" />
    <glyph glyph-name="jabardeva" unicode="&#x97c;" horiz-adv-x="775" 
d="M82 71h495v290h-92h-31.5t-23.5 1q28 -26 44 -57.5t16 -65.5q0 -67 -47 -101t-115 -34q-58 0 -111 27t-101.5 92.5t-91.5 182.5l98 35q44 -118 91.5 -178.5t105.5 -60.5q26 0 42.5 12.5t16.5 39.5q0 34 -27.5 65t-72.5 55l38 82h261v71h-577v95h789v-95h-97v-539h-610v83
z" />
    <glyph glyph-name="uni097D" unicode="&#x97d;" horiz-adv-x="489" 
d="M233 632q101 0 156.5 -53.5t55.5 -140.5q0 -78 -44.5 -126.5t-120.5 -66.5v-245h-114v329q88 1 125.5 33.5t37.5 81.5q0 46 -30.5 69t-77.5 23q-40 0 -69.5 -8.5t-61.5 -23.5l-34 92q37 15 81 25.5t96 10.5z" />
    <glyph glyph-name="ddabardeva" unicode="&#x97e;" horiz-adv-x="603" 
d="M368 255q-28 0 -59 -5t-57 -14q-29 13 -55 33.5t-42 46.5t-16 56q0 26 10.5 44t26.5 30q23 16 53 22.5t88 6.5h80v52h-397v95h617v-95h-106v-134h-210q-21 0 -35.5 -5.5t-14.5 -21.5q0 -12 8 -22t19 -17q21 6 48.5 9t56.5 3q87 0 133.5 -34t46.5 -92q0 -55 -50.5 -93
t-160.5 -38q-106 0 -185.5 35t-147.5 96l78 68q54 -53 114.5 -82t137.5 -29q55 0 77.5 12.5t22.5 33.5q0 18 -17.5 28.5t-63.5 10.5zM51 71h501v-83h-501v83z" />
    <glyph glyph-name="babardeva" unicode="&#x97f;" horiz-adv-x="602" 
d="M82 71h322v92q-33 -19 -70 -30t-92 -11q-56 0 -102 20t-73 59t-27 94q0 83 60 130t157 47q33 0 66 -2.5t50 -5.5l-9 -91q-18 5 -41 7.5t-46 2.5q-11 0 -21 -1l106 -138q11 8 21.5 17t20.5 19v247h-404v95h616v-95h-98v-539h-436v83zM152 295q0 -47 29 -66t72 -19
q24 0 46 6l-113 146q-34 -23 -34 -67z" />
    <glyph glyph-name="uni200C" unicode="&#x200c;" 
d="M-26 788h52v-954h-52v954z" />
    <glyph glyph-name="uni200D" unicode="&#x200d;" 
d="M146 539l-37 -36l-83 82v-750h-52v750l-83 -82l-37 36l110 107l-110 106l37 36l109 -108l109 108l37 -37l-110 -105z" />
    <glyph glyph-name="uni25CC" unicode="&#x25cc;" horiz-adv-x="510" 
d="M254 457q-28 0 -28 29q0 28 28 28q30 0 30 -28q0 -29 -30 -29zM384 407q-29 0 -29 29t29 29t29 -29t-29 -29zM125 407q-28 0 -28 29t28 29q29 0 29 -29t-29 -29zM81 283q-29 0 -29 29q0 28 29 28q28 0 28 -28q0 -29 -28 -29zM429 283q-29 0 -29 29q0 28 29 28t29 -28
q0 -29 -29 -29zM125 158q-28 0 -28 29t28 29q29 0 29 -29t-29 -29zM384 158q-29 0 -29 29t29 29t29 -29t-29 -29zM254 108q-28 0 -28 29t28 29q30 0 30 -29t-30 -29z" />
    <glyph glyph-name="uni02BC" unicode="&#x2bc;" horiz-adv-x="326" 
d="M256 729l7 -11q-13 -53 -37 -116t-49 -118h-92l27 126.5t22 118.5h122z" />
    <glyph glyph-name="ashortnuktadeva" horiz-adv-x="814" 
d="M502 214q0 -70 -46 -108t-127 -38q-61 0 -113 26t-99.5 87.5t-93.5 169.5l99 37q42 -106 90 -164.5t109 -58.5q32 0 50 16t18 48q0 29 -12 52.5t-34 44.5q-32 -7 -70 -8l-6 92q62 3 86.5 21t24.5 51q0 31 -21.5 43t-48.5 12q-34 0 -63 -9.5t-58 -24.5l-33 89q28 14 71 27
t95 13q82 0 126 -42t44 -106q0 -75 -58 -119q6 -6 12 -13q30 -4 66 -4q31 0 56.5 3.5t50.5 10.5v165h-67v95h279v-95h-98v-527h-114v265q-22 -7 -44.5 -9.5t-47.5 -2.5q-13 0 -28 1q5 -19 5 -40zM621 615q-17 67 -39 89.5t-56 22.5q-14 0 -25.5 -1t-25.5 -1q-49 0 -87 28.5
t-68 110.5l89 32q17 -40 34 -59.5t54 -19.5q18 0 33 2t32 2q38 0 66 -16.5t51 -61t45 -128.5h-103zM228 -61q0 28 19.5 48.5t47.5 20.5t47 -20.5t19 -48.5q0 -29 -19 -49t-47 -20t-47.5 20t-19.5 49z" />
    <glyph glyph-name="anuktadeva" horiz-adv-x="814" 
d="M502 214q0 -70 -46 -108t-127 -38q-61 0 -113 26t-99.5 87.5t-93.5 169.5l99 37q42 -106 90 -164.5t109 -58.5q32 0 50 16t18 48q0 29 -12 52.5t-34 44.5q-32 -7 -70 -8l-6 92q62 3 86.5 21t24.5 51q0 31 -21.5 43t-48.5 12q-34 0 -63 -9.5t-58 -24.5l-33 89q28 14 71 27
t95 13q82 0 126 -42t44 -106q0 -75 -58 -119q6 -6 12 -13q30 -4 66 -4q31 0 56.5 3.5t50.5 10.5v165h-67v95h279v-95h-98v-527h-114v265q-22 -7 -44.5 -9.5t-47.5 -2.5q-13 0 -28 1q5 -19 5 -40zM228 -61q0 28 19.5 48.5t47.5 20.5t47 -20.5t19 -48.5q0 -29 -19 -49t-47 -20
t-47.5 20t-19.5 49z" />
    <glyph glyph-name="aanuktadeva" horiz-adv-x="1096" 
d="M502 214q0 -70 -46 -108t-127 -38q-61 0 -113 26t-99.5 87.5t-93.5 169.5l99 37q42 -106 90 -164.5t109 -58.5q32 0 50 16t18 48q0 29 -12 52.5t-34 44.5q-32 -7 -70 -8l-6 92q62 3 86.5 21t24.5 51q0 31 -21.5 43t-48.5 12q-34 0 -63 -9.5t-58 -24.5l-33 89q28 14 71 27
t95 13q82 0 126 -42t44 -106q0 -75 -58 -119q6 -6 12 -13q30 -4 66 -4q31 0 56.5 3.5t50.5 10.5v165h-67v95h560v-95h-98v-527h-114v527h-167v-527h-114v265q-22 -7 -44.5 -9.5t-47.5 -2.5q-13 0 -28 1q5 -19 5 -40zM228 -61q0 28 19.5 48.5t47.5 20.5t47 -20.5t19 -48.5
q0 -29 -19 -49t-47 -20t-47.5 20t-19.5 49z" />
    <glyph glyph-name="inuktadeva" horiz-adv-x="508" 
d="M273 208q-28 0 -57.5 -6t-54.5 -17q-31 15 -57.5 38.5t-43 53t-16.5 63.5q0 30 10.5 51t27.5 35q23 18 55 25.5t90 7.5h75v68h-302v95h522v-95h-106v-156h-199q-22 0 -31.5 -2.5t-16.5 -6.5q-13 -10 -13 -26t8.5 -28t20.5 -22q44 14 102 14q84 0 132.5 -39.5t48.5 -107.5
q0 -62 -40 -98.5t-114 -46.5q28 -11 59.5 -22t63.5 -21l-41 -86q-63 29 -120 60t-104 62q-59 3 -93.5 19t-34.5 57q0 29 17.5 44.5t41.5 15.5q45 0 95 -45q15 -2 28 -2q62 0 95 16.5t33 48.5q0 25 -19 39t-62 14zM139 -156q0 28 19.5 48.5t47.5 20.5t47 -20.5t19 -48.5
q0 -29 -19 -49t-47 -20t-47.5 20t-19.5 49z" />
    <glyph glyph-name="iinuktadeva" horiz-adv-x="508" 
d="M273 208q-28 0 -57.5 -6t-54.5 -17q-31 15 -57.5 38.5t-43 53t-16.5 63.5q0 30 10.5 51t27.5 35q23 18 55 25.5t90 7.5h75v68h-302v95h522v-95h-106v-156h-199q-22 0 -31.5 -2.5t-16.5 -6.5q-13 -10 -13 -26t8.5 -28t20.5 -22q44 14 102 14q84 0 132.5 -39.5t48.5 -107.5
q0 -62 -40 -98.5t-114 -46.5q28 -11 59.5 -22t63.5 -21l-41 -86q-63 29 -120 60t-104 62q-59 3 -93.5 19t-34.5 57q0 29 17.5 44.5t41.5 15.5q45 0 95 -45q15 -2 28 -2q62 0 95 16.5t33 48.5q0 25 -19 39t-62 14zM283 615q-21 34 -34 70.5t-13 70.5q0 71 48.5 105.5
t121.5 34.5q33 0 62 -5t51 -13l-24 -84q-37 14 -69 14q-40 0 -58.5 -20t-18.5 -57q0 -28 12.5 -57.5t32.5 -58.5h-111zM139 -156q0 28 19.5 48.5t47.5 20.5t47 -20.5t19 -48.5q0 -29 -19 -49t-47 -20t-47.5 20t-19.5 49z" />
    <glyph glyph-name="unuktadeva" horiz-adv-x="570" 
d="M0 622h585v-95h-97q23 -34 23 -74q0 -82 -75 -128q34 -32 61.5 -74.5t27.5 -96.5q0 -76 -50 -115t-133 -39q-64 0 -118.5 29.5t-103.5 98t-97 184.5l99 37q47 -121 97 -186t113 -65q37 0 57.5 17t20.5 54q0 36 -19 64.5t-55 55.5q-31 -6 -66 -7l-5 93q64 2 98 20t34 63
q0 22 -11 39.5t-28 29.5h-358v95zM225 -134q0 28 19.5 48.5t47.5 20.5t47 -20.5t19 -48.5q0 -29 -19 -49t-47 -20t-47.5 20t-19.5 49z" />
    <glyph glyph-name="uunuktadeva" horiz-adv-x="804" 
d="M0 622h819v-95h-331q23 -34 23 -74q0 -82 -75 -128q16 -14 29 -29q33 22 67.5 34t72.5 12q71 0 115.5 -39.5t44.5 -115.5q0 -43 -13.5 -90t-48.5 -97l-99 55q22 27 35 60t13 64q0 37 -17 52.5t-46 15.5q-19 0 -37.5 -9t-36.5 -24q10 -30 10 -60q0 -76 -50 -115t-133 -39
q-64 0 -118.5 29.5t-103.5 98t-97 184.5l99 37q47 -121 97 -186t113 -65q37 0 57.5 17t20.5 54q0 36 -19 64.5t-55 55.5q-31 -6 -66 -7l-5 93q64 2 98 20t34 63q0 22 -11 39.5t-28 29.5h-358v95zM225 -134q0 28 19.5 48.5t47.5 20.5t47 -20.5t19 -48.5q0 -29 -19 -49
t-47 -20t-47.5 20t-19.5 49z" />
    <glyph glyph-name="rvocalicnuktadeva" horiz-adv-x="893" 
d="M129 51l-60 83l244 141q-35 40 -61.5 56.5t-61.5 16.5q-28 0 -56.5 -8t-69.5 -29l-38 95q40 19 79 30.5t83 11.5q40 0 70.5 -11t60.5 -37t66 -71v198h-385v95h907v-95h-408v-198q29 2 58.5 6t52.5 9q-5 14 -5 29q0 36 24 53.5t54 17.5q45 0 67.5 -24.5t22.5 -58.5
q0 -26 -12.5 -44t-29.5 -26q14 -25 29.5 -46.5l33.5 -46.5l-20 -35q-52 -5 -72 -23t-20 -44q0 -27 19 -40t49 -13q26 0 50 7t58 25l34 -87q-26 -13 -61 -23.5t-82 -10.5q-76 0 -122 39.5t-46 103.5q0 88 87 128q-13 24 -20 39q-27 -10 -68 -16.5t-81 -8.5v-239h-114v211z
M150 -69q0 28 19.5 48.5t47.5 20.5t47 -20.5t19 -48.5q0 -29 -19 -49t-47 -20t-47.5 20t-19.5 49z" />
    <glyph glyph-name="lvocalicnuktadeva" horiz-adv-x="735" 
d="M448 30q0 100 108 137q11 21 17 42t6 43q0 40 -18.5 59t-48.5 19q-20 0 -42.5 -10.5t-44 -40t-36.5 -84.5l-107 33q10 37 25 68q-18 14 -37.5 23t-43.5 9q-34 0 -53 -19t-19 -48q0 -31 17.5 -59.5t54 -62t94.5 -79.5l-75 -75q-98 80 -151.5 145t-53.5 139q0 57 25.5 91.5
t64 50t76.5 15.5q48 0 85.5 -13t73.5 -40q45 39 109 49v105h-474v95h750v-95h-163v-112q46 -15 76 -55t30 -105q0 -43 -12.5 -82t-31.5 -74v0v-1q-55 -5 -77.5 -23.5t-22.5 -45.5t19 -40.5t49 -13.5q26 0 50.5 7.5t58.5 25.5l33 -87q-26 -13 -61.5 -23.5t-81.5 -10.5
q-75 0 -121.5 39.5t-46.5 103.5zM180 -133q0 28 19.5 48.5t47.5 20.5t47 -20.5t19 -48.5q0 -29 -19 -49t-47 -20t-47.5 20t-19.5 49z" />
    <glyph glyph-name="ecandranuktadeva" horiz-adv-x="587" 
d="M602 527h-87v-145q0 -51 -8.5 -81.5t-29.5 -52.5q-39 -43 -132 -52l-21 96q42 8 57 21q11 11 15.5 27t4.5 53v134h-215v-176q0 -41 3 -67t13 -44t30 -34t54 -35l129 -74q61 -36 84.5 -69.5t23.5 -82.5q0 -41 -17 -78t-35 -60l-95 55q11 15 21 35t10 39q0 20 -7.5 34
t-29.5 30t-66 42l-108 63q-39 22 -66.5 46.5t-41.5 58.5q-8 19 -12 44.5t-4 65.5v207h-72v95h602v-95zM586 861q-26 -107 -84.5 -151.5t-142.5 -44.5q-77 0 -137 46.5t-97 148.5l91 33q26 -71 60 -105t86 -34q56 0 83.5 36.5t43.5 102.5zM119 -79q0 28 19.5 48.5t47.5 20.5
t47 -20.5t19 -48.5q0 -29 -19 -49t-47 -20t-47.5 20t-19.5 49z" />
    <glyph glyph-name="eshortnuktadeva" horiz-adv-x="587" 
d="M602 527h-87v-145q0 -51 -8.5 -81.5t-29.5 -52.5q-39 -43 -132 -52l-21 96q42 8 57 21q11 11 15.5 27t4.5 53v134h-215v-176q0 -41 3 -67t13 -44t30 -34t54 -35l129 -74q61 -36 84.5 -69.5t23.5 -82.5q0 -41 -17 -78t-35 -60l-95 55q11 15 21 35t10 39q0 20 -7.5 34
t-29.5 30t-66 42l-108 63q-39 22 -66.5 46.5t-41.5 58.5q-8 19 -12 44.5t-4 65.5v207h-72v95h602v-95zM406 615q-17 67 -39 89.5t-56 22.5q-14 0 -25.5 -1t-25.5 -1q-49 0 -87 28.5t-68 110.5l89 32q17 -40 34 -59.5t54 -19.5q18 0 33 2t32 2q38 0 66 -16.5t51 -61
t45 -128.5h-103zM119 -79q0 28 19.5 48.5t47.5 20.5t47 -20.5t19 -48.5q0 -29 -19 -49t-47 -20t-47.5 20t-19.5 49z" />
    <glyph glyph-name="enuktadeva" horiz-adv-x="587" 
d="M602 527h-87v-145q0 -51 -8.5 -81.5t-29.5 -52.5q-39 -43 -132 -52l-21 96q42 8 57 21q11 11 15.5 27t4.5 53v134h-215v-176q0 -41 3 -67t13 -44t30 -34t54 -35l129 -74q61 -36 84.5 -69.5t23.5 -82.5q0 -41 -17 -78t-35 -60l-95 55q11 15 21 35t10 39q0 20 -7.5 34
t-29.5 30t-66 42l-108 63q-39 22 -66.5 46.5t-41.5 58.5q-8 19 -12 44.5t-4 65.5v207h-72v95h602v-95zM119 -79q0 28 19.5 48.5t47.5 20.5t47 -20.5t19 -48.5q0 -29 -19 -49t-47 -20t-47.5 20t-19.5 49z" />
    <glyph glyph-name="ainuktadeva" horiz-adv-x="587" 
d="M602 527h-87v-145q0 -51 -8.5 -81.5t-29.5 -52.5q-39 -43 -132 -52l-21 96q42 8 57 21q11 11 15.5 27t4.5 53v134h-215v-176q0 -41 3 -67t13 -44t30 -34t54 -35l129 -74q61 -36 84.5 -69.5t23.5 -82.5q0 -41 -17 -78t-35 -60l-95 55q11 15 21 35t10 39q0 20 -7.5 34
t-29.5 30t-66 42l-108 63q-39 22 -66.5 46.5t-41.5 58.5q-8 19 -12 44.5t-4 65.5v207h-72v95h602v-95zM406 615q-19 67 -36.5 107t-40.5 58.5t-57 18.5q-20 0 -37.5 -4.5t-31.5 -9.5l-31 93q23 9 47 13.5t53 4.5q40 0 73.5 -12t61.5 -42t53 -85t49 -142h-103zM119 -79
q0 28 19.5 48.5t47.5 20.5t47 -20.5t19 -48.5q0 -29 -19 -49t-47 -20t-47.5 20t-19.5 49z" />
    <glyph glyph-name="ocandranuktadeva" horiz-adv-x="1096" 
d="M502 214q0 -70 -46 -108t-127 -38q-61 0 -113 26t-99.5 87.5t-93.5 169.5l99 37q42 -106 90 -164.5t109 -58.5q32 0 50 16t18 48q0 29 -12 52.5t-34 44.5q-32 -7 -70 -8l-6 92q62 3 86.5 21t24.5 51q0 31 -21.5 43t-48.5 12q-34 0 -63 -9.5t-58 -24.5l-33 89q28 14 71 27
t95 13q82 0 126 -42t44 -106q0 -75 -58 -119q6 -6 12 -13q30 -4 66 -4q31 0 56.5 3.5t50.5 10.5v165h-67v95h560v-95h-98v-527h-114v527h-167v-527h-114v265q-22 -7 -44.5 -9.5t-47.5 -2.5q-13 0 -28 1q5 -19 5 -40zM228 -61q0 28 19.5 48.5t47.5 20.5t47 -20.5t19 -48.5
q0 -29 -19 -49t-47 -20t-47.5 20t-19.5 49zM1146 861q-26 -107 -84.5 -151.5t-142.5 -44.5q-77 0 -137 46.5t-97 148.5l91 33q26 -71 60 -105t86 -34q56 0 83.5 36.5t43.5 102.5z" />
    <glyph glyph-name="oshortnuktadeva" horiz-adv-x="1096" 
d="M502 214q0 -70 -46 -108t-127 -38q-61 0 -113 26t-99.5 87.5t-93.5 169.5l99 37q42 -106 90 -164.5t109 -58.5q32 0 50 16t18 48q0 29 -12 52.5t-34 44.5q-32 -7 -70 -8l-6 92q62 3 86.5 21t24.5 51q0 31 -21.5 43t-48.5 12q-34 0 -63 -9.5t-58 -24.5l-33 89q28 14 71 27
t95 13q82 0 126 -42t44 -106q0 -75 -58 -119q6 -6 12 -13q30 -4 66 -4q31 0 56.5 3.5t50.5 10.5v165h-67v95h560v-95h-98v-527h-114v527h-167v-527h-114v265q-22 -7 -44.5 -9.5t-47.5 -2.5q-13 0 -28 1q5 -19 5 -40zM903 615q-17 67 -39 89.5t-56 22.5q-14 0 -25.5 -1
t-25.5 -1q-49 0 -87 28.5t-68 110.5l89 32q17 -40 34 -59.5t54 -19.5q18 0 33 2t32 2q38 0 66 -16.5t51 -61t45 -128.5h-103zM228 -61q0 28 19.5 48.5t47.5 20.5t47 -20.5t19 -48.5q0 -29 -19 -49t-47 -20t-47.5 20t-19.5 49z" />
    <glyph glyph-name="onuktadeva" horiz-adv-x="1096" 
d="M502 214q0 -70 -46 -108t-127 -38q-61 0 -113 26t-99.5 87.5t-93.5 169.5l99 37q42 -106 90 -164.5t109 -58.5q32 0 50 16t18 48q0 29 -12 52.5t-34 44.5q-32 -7 -70 -8l-6 92q62 3 86.5 21t24.5 51q0 31 -21.5 43t-48.5 12q-34 0 -63 -9.5t-58 -24.5l-33 89q28 14 71 27
t95 13q82 0 126 -42t44 -106q0 -75 -58 -119q6 -6 12 -13q30 -4 66 -4q31 0 56.5 3.5t50.5 10.5v165h-67v95h560v-95h-98v-527h-114v527h-167v-527h-114v265q-22 -7 -44.5 -9.5t-47.5 -2.5q-13 0 -28 1q5 -19 5 -40zM903 615q-19 67 -36.5 107t-40.5 58.5t-57 18.5
q-20 0 -37.5 -4.5t-31.5 -9.5l-31 93q23 9 47 13.5t53 4.5q40 0 73.5 -12t61.5 -42t53 -85t49 -142h-103zM228 -61q0 28 19.5 48.5t47.5 20.5t47 -20.5t19 -48.5q0 -29 -19 -49t-47 -20t-47.5 20t-19.5 49z" />
    <glyph glyph-name="aunuktadeva" horiz-adv-x="1096" 
d="M502 214q0 -70 -46 -108t-127 -38q-61 0 -113 26t-99.5 87.5t-93.5 169.5l99 37q42 -106 90 -164.5t109 -58.5q32 0 50 16t18 48q0 29 -12 52.5t-34 44.5q-32 -7 -70 -8l-6 92q62 3 86.5 21t24.5 51q0 31 -21.5 43t-48.5 12q-34 0 -63 -9.5t-58 -24.5l-33 89q28 14 71 27
t95 13q82 0 126 -42t44 -106q0 -75 -58 -119q6 -6 12 -13q30 -4 66 -4q31 0 56.5 3.5t50.5 10.5v165h-67v95h560v-95h-98v-527h-114v527h-167v-527h-114v265q-22 -7 -44.5 -9.5t-47.5 -2.5q-13 0 -28 1q5 -19 5 -40zM895 615q-28 34 -49 49.5t-40 20t-42 4.5q-22 0 -42 -6
t-40 -16l-31 80q25 11 51 17.5t51 6.5q78 0 135 -71l4 1q-29 68 -57.5 91.5t-70.5 23.5q-19 0 -35.5 -4t-31.5 -10l-27 79q18 7 42 11t51 4q40 0 73.5 -10t62.5 -39t55 -85t51 -147h-110zM228 -61q0 28 19.5 48.5t47.5 20.5t47 -20.5t19 -48.5q0 -29 -19 -49t-47 -20
t-47.5 20t-19.5 49z" />
    <glyph glyph-name="rrvocalicnuktadeva" horiz-adv-x="893" 
d="M129 51l-60 83l244 141q-35 40 -61.5 56.5t-61.5 16.5q-28 0 -56.5 -8t-69.5 -29l-38 95q40 19 79 30.5t83 11.5q40 0 70.5 -11t60.5 -37t66 -71v198h-385v95h907v-95h-408v-198q29 2 58.5 6t52.5 9q-5 14 -5 29q0 36 24 53.5t54 17.5q45 0 67.5 -24.5t22.5 -58.5
q0 -26 -12.5 -44t-29.5 -26q14 -25 29.5 -46.5l33.5 -46.5l-20 -35q-52 -4 -71.5 -20.5t-19.5 -35.5q0 -45 68 -45q28 0 51.5 6.5t58.5 22.5l32 -80q-26 -13 -61.5 -23.5t-82.5 -10.5q-8 0 -16 1q-9 -12 -9 -27q0 -44 69 -44q28 0 51.5 6.5t58.5 23.5l31 -80
q-26 -13 -61 -24t-82 -11q-77 0 -122.5 37t-45.5 95q0 29 13 54q-55 37 -55 101q0 36 22 67t65 49q-13 24 -20 39q-27 -10 -68 -16.5t-81 -8.5v-239h-114v211zM150 -69q0 28 19.5 48.5t47.5 20.5t47 -20.5t19 -48.5q0 -29 -19 -49t-47 -20t-47.5 20t-19.5 49z" />
    <glyph glyph-name="llvocalicnuktadeva" horiz-adv-x="735" 
d="M206 426q48 0 85.5 -13t73.5 -40q45 39 109 49v105h-474v95h750v-95h-163v-112q46 -15 76 -55t30 -105q0 -41 -8 -69t-22 -59q-70 -4 -92 -20.5t-22 -37.5q0 -45 68 -45q28 0 52 6.5t59 22.5l31 -79q-26 -13 -61.5 -23.5t-82.5 -10.5h-15q-10 -11 -10 -27q0 -44 69 -44
q28 0 51.5 6.5t58.5 22.5l32 -79q-26 -13 -61.5 -24t-82.5 -11q-77 0 -122.5 37t-45.5 95q0 29 13 54q-26 18 -40.5 43.5t-14.5 57.5q0 46 31.5 80t92.5 49q8 27 8 52q0 40 -18.5 59t-48.5 19q-20 0 -42.5 -10.5t-44 -40t-36.5 -84.5l-107 33q10 37 25 68q-18 14 -37.5 23
t-43.5 9q-34 0 -53 -19t-19 -48q0 -31 17.5 -59.5t54 -62t94.5 -79.5l-75 -75q-98 80 -151.5 145t-53.5 139q0 57 25.5 91.5t64 50t76.5 15.5zM180 -133q0 28 19.5 48.5t47.5 20.5t47 -20.5t19 -48.5q0 -29 -19 -49t-47 -20t-47.5 20t-19.5 49z" />
    <glyph glyph-name="acandranuktadeva" horiz-adv-x="814" 
d="M502 214q0 -70 -46 -108t-127 -38q-61 0 -113 26t-99.5 87.5t-93.5 169.5l99 37q42 -106 90 -164.5t109 -58.5q32 0 50 16t18 48q0 29 -12 52.5t-34 44.5q-32 -7 -70 -8l-6 92q62 3 86.5 21t24.5 51q0 31 -21.5 43t-48.5 12q-34 0 -63 -9.5t-58 -24.5l-33 89q28 14 71 27
t95 13q82 0 126 -42t44 -106q0 -75 -58 -119q6 -6 12 -13q30 -4 66 -4q31 0 56.5 3.5t50.5 10.5v165h-67v95h279v-95h-98v-527h-114v265q-22 -7 -44.5 -9.5t-47.5 -2.5q-13 0 -28 1q5 -19 5 -40zM868 861q-26 -107 -84.5 -151.5t-142.5 -44.5q-77 0 -137 46.5t-97 148.5
l91 33q26 -71 60 -105t86 -34q56 0 83.5 36.5t43.5 102.5zM228 -61q0 28 19.5 48.5t47.5 20.5t47 -20.5t19 -48.5q0 -29 -19 -49t-47 -20t-47.5 20t-19.5 49z" />
    <glyph glyph-name="ghanuktadeva" horiz-adv-x="625" 
d="M639 527h-98v-527h-114v151q-33 -20 -70 -32t-87 -12q-88 0 -139 42.5t-51 112.5q0 25 7.5 48t23.5 42q-35 20 -55 51.5t-20 68.5q0 33 9 55h-45v95h639v-95zM194 265q0 -33 24 -48t61 -15q52 0 88.5 22.5t59.5 48.5v254h-260q-17 -19 -17 -44q0 -28 15.5 -45t39.5 -23
q30 7 65 7q13 0 27.5 -1t21.5 -3l-7 -93q-5 1 -12.5 1h-14.5q-43 0 -67 -15.5t-24 -45.5zM100 -5q0 28 19.5 48.5t47.5 20.5t47 -20.5t19 -48.5q0 -29 -19 -49t-47 -20t-47.5 20t-19.5 49z" />
    <glyph glyph-name="nganuktadeva" horiz-adv-x="677" 
d="M368 208q-58 0 -112 -23q-30 15 -57 38t-43.5 53t-16.5 64q0 30 10.5 51t27.5 35q23 18 55 25.5t90 7.5h63v68h-385v95h691v-95h-192v-156h-187q-22 0 -31.5 -2.5t-16.5 -6.5q-13 -10 -13 -26t9 -28t20 -22q44 14 102 14q84 0 132.5 -39t48.5 -107q0 -67 -52 -110.5
t-159 -43.5q-111 0 -193.5 45.5t-140.5 110.5l84 67q55 -60 113 -92.5t134 -32.5q53 0 76.5 16t23.5 43q0 24 -19 37.5t-62 13.5zM530 339q0 27 17.5 45.5t44.5 18.5q26 0 44 -18.5t18 -45.5t-18 -45.5t-44 -18.5q-27 0 -44.5 18.5t-17.5 45.5zM262 -134q0 28 19.5 48.5
t47.5 20.5t47 -20.5t19 -48.5q0 -29 -19 -49t-47 -20t-47.5 20t-19.5 49z" />
    <glyph glyph-name="canuktadeva" horiz-adv-x="669" 
d="M684 527h-99v-527h-113v141q-31 -18 -65 -29t-80 -11q-85 0 -137.5 42.5t-52.5 110.5q0 28 10.5 52t28.5 41l-139 -2v96h303q19 0 36.5 -0.5t21.5 -1.5l-9 -93h-25q-58 0 -85 -21t-27 -58q0 -33 22.5 -52t57.5 -19q47 0 79.5 18.5t60.5 50.5v262h-472v95h684v-95z
M151 -14q0 28 19.5 48.5t47.5 20.5t47 -20.5t19 -48.5q0 -29 -19 -49t-47 -20t-47.5 20t-19.5 49z" />
    <glyph glyph-name="chanuktadeva" horiz-adv-x="738" 
d="M320 96q75 0 134.5 26.5t94 72t34.5 104.5q0 38 -17.5 65.5t-54.5 27.5q-25 0 -37 -13t-12 -32q0 -25 21 -45t69 -32l-43 -79q-79 24 -116 64t-37 91q0 48 27.5 81t80.5 43v57h-464v95h752v-95h-174v-62q54 -16 86.5 -58.5t32.5 -113.5q0 -54 -24.5 -106t-72.5 -94
t-118.5 -67.5t-163.5 -25.5q-113 0 -168 42t-55 108q0 19 6 39t20 37q-40 21 -62 52t-22 72q0 60 46.5 93.5t127.5 33.5q19 0 46 -2.5t44 -6.5l-8 -91q-14 5 -32 8t-39 3q-71 0 -71 -47q0 -20 17 -32.5t44 -18.5q28 7 61 7q13 0 26 -1t20 -2l-9 -89q-5 1 -12.5 1h-15.5
q-76 0 -76 -51q0 -31 30 -45t84 -14zM292 -134q0 28 19.5 48.5t47.5 20.5t47 -20.5t19 -48.5q0 -29 -19 -49t-47 -20t-47.5 20t-19.5 49z" />
    <glyph glyph-name="jhanuktadeva" horiz-adv-x="789" 
d="M273 208q-28 0 -57.5 -6t-54.5 -17q-31 15 -57.5 38.5t-43 53t-16.5 63.5q0 30 10.5 51t27.5 35q23 18 54.5 25.5t89.5 7.5h76v68h-302v95h803v-95h-97v-527h-114v196q-23 -7 -48.5 -10t-57.5 -3q-10 0 -21 1q3 -15 3 -31q0 -62 -40 -98.5t-114 -46.5q28 -11 59.5 -22
t63.5 -21l-41 -86q-63 29 -120 60t-104 62q-59 3 -93.5 19t-34.5 57q0 29 17.5 44.5t41.5 15.5q45 0 95 -45q15 -2 28 -2q62 0 95 16.5t33 48.5q0 25 -19 39t-62 14zM476 277q37 0 64.5 4.5t51.5 12.5v233h-176v-156h-199q-22 0 -31.5 -2.5t-16.5 -6.5q-13 -10 -13 -26
t8.5 -28t20.5 -22q44 14 102 14q52 0 92 -16q22 -3 48 -5t49 -2zM139 -156q0 28 19.5 48.5t47.5 20.5t47 -20.5t19 -48.5q0 -29 -19 -49t-47 -20t-47.5 20t-19.5 49z" />
    <glyph glyph-name="nyanuktadeva" horiz-adv-x="796" 
d="M204 420q34 15 66.5 21.5t61.5 6.5q71 0 120.5 -33t63.5 -93q8 -1 16 -1q19 0 36 3t31 9v194h-599v95h810v-95h-97v-527h-114v241q-35 -8 -76 -8h-6q-11 -52 -44 -81t-74.5 -40.5t-79.5 -11.5q-89 0 -164.5 52t-131.5 174l97 40q75 -168 191 -168q50 0 75.5 21.5
t25.5 57.5q0 38 -24.5 55.5t-60.5 17.5q-24 0 -44.5 -6t-43.5 -16zM214 -30q0 28 19.5 48.5t47.5 20.5t47 -20.5t19 -48.5q0 -29 -19 -49t-47 -20t-47.5 20t-19.5 49z" />
    <glyph glyph-name="ttanuktadeva" horiz-adv-x="527" 
d="M541 527h-143v-192h-63q-52 0 -81.5 -6.5t-50.5 -19.5q-50 -32 -50 -90q0 -63 42.5 -91.5t103.5 -28.5q51 0 91 12.5t81 34.5l37 -98q-46 -21 -96 -34.5t-114 -13.5q-75 0 -133.5 26.5t-91.5 76.5t-33 121q0 65 33 110t88 69t123 26v98h-284v95h541v-95zM222 -134
q0 28 19.5 48.5t47.5 20.5t47 -20.5t19 -48.5q0 -29 -19 -49t-47 -20t-47.5 20t-19.5 49z" />
    <glyph glyph-name="tthanuktadeva" horiz-adv-x="606" 
d="M620 527h-222v-106q81 -31 124.5 -90t43.5 -131t-35.5 -116t-94 -64t-128.5 -20q-80 0 -140.5 25t-94 74.5t-33.5 122.5q0 66 32.5 111.5t88 69.5t123.5 26v98h-284v95h620v-95zM304 97q64 0 106 26t42 83q0 42 -26 75.5t-78 53.5h-16q-47 0 -76.5 -6.5t-49.5 -18.5
q-53 -32 -53 -94q0 -61 43 -90t108 -29zM238 -134q0 28 19.5 48.5t47.5 20.5t47 -20.5t19 -48.5q0 -29 -19 -49t-47 -20t-47.5 20t-19.5 49z" />
    <glyph glyph-name="nnanuktadeva" horiz-adv-x="770" 
d="M686 527v-527h-114v527h-119v-210q0 -50 -9.5 -80.5t-29.5 -54.5q-23 -26 -60.5 -40t-90.5 -14q-103 0 -152 61q-19 25 -29 61t-10 98v179h-72v95h784v-95h-98zM262 223q44 0 61 27q10 15 13 33t3 58v186h-153v-186q0 -37 3.5 -55.5t11.5 -32.5q18 -30 61 -30zM201 -18
q0 28 19.5 48.5t47.5 20.5t47 -20.5t19 -48.5q0 -29 -19 -49t-47 -20t-47.5 20t-19.5 49z" />
    <glyph glyph-name="tanuktadeva" horiz-adv-x="604" 
d="M520 527v-527h-114v310h-98q-57 0 -85 -5.5t-46 -20.5q-22 -18 -22 -55q0 -40 33 -79.5t97 -89.5l-74 -75q-47 39 -85.5 80.5t-61.5 85.5t-23 93q0 36 13.5 64.5t34.5 47.5q30 26 72 37.5t116 11.5h129v122h-406v95h618v-95h-98zM145 -149q0 28 19.5 48.5t47.5 20.5
t47 -20.5t19 -48.5q0 -29 -19 -49t-47 -20t-47.5 20t-19.5 49z" />
    <glyph glyph-name="thanuktadeva" horiz-adv-x="689" 
d="M606 527v-527h-114v159q-67 -43 -165 -43q-92 0 -152.5 52.5t-85.5 153.5q94 20 131 55t37 87q0 40 -19 63.5t-55 23.5q-23 0 -35.5 -11t-12.5 -28q0 -21 15.5 -33.5t55.5 -17.5l-21 -81q-67 9 -104 43.5t-37 91.5q0 60 42 88.5t102 28.5q50 0 92 -19t67 -57t25 -96
q0 -63 -34 -112.5t-112 -80.5q19 -28 45 -42t64 -14q50 0 87.5 19t69.5 53v244h-70v95h281v-95h-97zM156 1q0 28 19.5 48.5t47.5 20.5t47 -20.5t19 -48.5q0 -29 -19 -49t-47 -20t-47.5 20t-19.5 49z" />
    <glyph glyph-name="danuktadeva" horiz-adv-x="544" 
d="M422 -64q-21 33 -39.5 69l-31.5 63q-26 -3 -58 -3q-45 0 -89.5 10.5t-81.5 34t-59.5 63t-22.5 97.5q0 44 16 76t44 54q32 27 78 40.5t103 15.5v71h-281v95h558v-95h-163v-167h-50q-58 0 -91.5 -5.5t-56.5 -18.5q-44 -25 -44 -75q0 -44 34.5 -72t112.5 -28h9.5t11.5 1
q-4 15 -4 26q0 36 24.5 51.5t53.5 15.5q49 0 75.5 -27t26.5 -62q0 -34 -15 -51.5t-39 -27.5q27 -48 72 -109zM143 -64q0 28 19.5 48.5t47.5 20.5t47 -20.5t19 -48.5q0 -29 -19 -49t-47 -20t-47.5 20t-19.5 49z" />
    <glyph glyph-name="dhanuktadeva" horiz-adv-x="660" 
d="M674 527h-98v-527h-114v135q-34 -20 -69 -31.5t-89 -11.5q-88 0 -138.5 42t-50.5 111q0 24 7.5 47.5t22.5 42.5q-45 21 -74 59.5t-29 94.5q0 41 20.5 73.5t56 51t81.5 18.5q64 0 101.5 -30.5t37.5 -76.5q0 -26 -10 -50t-32 -44l-70 45q16 15 16 35q0 37 -41 37
q-26 0 -43 -17t-17 -46q0 -42 31 -62.5t68 -25.5q30 7 64 7q13 0 27 -1t22 -2l-7 -91q-5 1 -12.5 1.5t-14.5 0.5q-44 0 -67.5 -16.5t-23.5 -45.5q0 -33 24 -48t61 -15q51 0 87 22t61 50v268h-58v95h270v-95zM182 -45q0 28 19.5 48.5t47.5 20.5t47 -20.5t19 -48.5
q0 -29 -19 -49t-47 -20t-47.5 20t-19.5 49z" />
    <glyph glyph-name="panuktadeva" horiz-adv-x="596" 
d="M513 527v-527h-114v172q-33 -19 -66.5 -28.5t-79.5 -9.5q-44 0 -77.5 13.5t-54.5 35.5q-25 28 -37 64.5t-12 102.5v177h-72v95h610v-95h-97zM399 527h-213v-168q0 -53 6 -74.5t20 -35.5q19 -20 62 -20q38 0 71.5 19.5t53.5 39.5v239zM104 -2q0 28 19.5 48.5t47.5 20.5
t47 -20.5t19 -48.5q0 -29 -19 -49t-47 -20t-47.5 20t-19.5 49z" />
    <glyph glyph-name="banuktadeva" horiz-adv-x="602" 
d="M616 527h-98v-527h-114v140q-33 -19 -70 -30t-92 -11q-56 0 -102 20.5t-73 59.5t-27 96q0 85 60 133t157 48q33 0 66 -2.5t50 -6.5l-9 -93q-18 4 -41 6.5t-46 2.5q-12 0 -22 -1l109 -136q11 8 21 16.5t19 18.5v266h-404v95h616v-95zM152 276q0 -46 29 -66t72 -20
q25 0 49 6l-117 146q-33 -22 -33 -66zM107 -14q0 28 19.5 48.5t47.5 20.5t47 -20.5t19 -48.5q0 -29 -19 -49t-47 -20t-47.5 20t-19.5 49z" />
    <glyph glyph-name="bhanuktadeva" horiz-adv-x="747" 
d="M186 632q89 0 136 -47q20 -19 33 -53t13 -97v-108h181v200h-111v95h323v-95h-98v-527h-114v232h-181v-24q0 -40 -17 -56.5t-45 -16.5q-20 0 -43.5 13t-44.5 34t-34 45t-13 46q0 23 14 38.5t53 15.5h17v103q0 40 -5 61t-14 35q-18 25 -54 25q-23 0 -35 -11t-12 -28
q0 -23 20 -36t67 -15l-8 -84q-76 6 -123 38t-47 99q0 62 42 90t100 28zM248 5q0 28 19.5 48.5t47.5 20.5t47 -20.5t19 -48.5q0 -29 -19 -49t-47 -20t-47.5 20t-19.5 49z" />
    <glyph glyph-name="manuktadeva" horiz-adv-x="628" 
d="M545 527v-527h-115v232h-199v-25q0 -39 -16.5 -55.5t-44.5 -16.5q-21 0 -44.5 13t-44.5 34t-34 45t-13 46q0 23 14 38.5t53 15.5h16v200h-117v95h643v-95h-98zM430 527h-199v-200h199v200zM133 3q0 28 19.5 48.5t47.5 20.5t47 -20.5t19 -48.5q0 -29 -19 -49t-47 -20
t-47.5 20t-19.5 49z" />
    <glyph glyph-name="lanuktadeva" horiz-adv-x="715" 
d="M0 527v95h730v-95h-98v-527h-114v332h-2q-22 0 -45.5 -11t-45 -41t-36.5 -85l-107 33q10 37 25 67q-18 15 -37.5 24t-43.5 9q-34 0 -53 -19t-19 -48q0 -31 17.5 -59.5t54 -62t94.5 -79.5l-75 -75q-98 80 -151.5 145t-53.5 139q0 57 25.5 91.5t64 50t76.5 15.5
q48 0 85.5 -13t73.5 -40q60 52 148 52h5v102h-518zM292 -128q0 28 19.5 48.5t47.5 20.5t47 -20.5t19 -48.5q0 -29 -19 -49t-47 -20t-47.5 20t-19.5 49z" />
    <glyph glyph-name="vanuktadeva" horiz-adv-x="587" 
d="M602 527h-99v-527h-114v139q-32 -19 -67 -29.5t-83 -10.5q-57 0 -102 20.5t-71 59.5t-26 96q0 85 58.5 133t154.5 48q27 0 58 -2.5t47 -6.5l-8 -97q-17 4 -38.5 6.5t-42.5 2.5q-56 0 -85.5 -22t-29.5 -61q0 -44 27.5 -62.5t65.5 -18.5q47 0 81.5 18.5t60.5 46.5v267h-389
v95h602v-95zM101 -14q0 28 19.5 48.5t47.5 20.5t47 -20.5t19 -48.5q0 -29 -19 -49t-47 -20t-47.5 20t-19.5 49z" />
    <glyph glyph-name="shanuktadeva" horiz-adv-x="724" 
d="M131 164q-39 0 -66 20t-27 58q0 33 20.5 52t55.5 19q20 0 42.5 -8t49.5 -27q44 17 72 57t28 99q0 54 -25.5 83t-65.5 29q-50 0 -50 -42q0 -14 8.5 -27.5t32.5 -24t70 -13.5l-24 -82q-98 7 -145.5 49t-47.5 100q0 55 40 90.5t116 35.5q53 0 99.5 -22t75 -66.5t28.5 -112.5
q0 -70 -33.5 -129.5t-93.5 -95.5q39 -35 74.5 -75t64.5 -77l-86 -59q-44 59 -81.5 101.5t-69.5 73.5q-30 -6 -62 -6zM640 527v-527h-114v527h-80v95h292v-95h-98zM152 -57q0 28 19.5 48.5t47.5 20.5t47 -20.5t19 -48.5q0 -29 -19 -49t-47 -20t-47.5 20t-19.5 49z" />
    <glyph glyph-name="ssanuktadeva" horiz-adv-x="607" 
d="M622 622v-95h-98v-527h-114v174q-35 -19 -70 -29.5t-83 -10.5q-45 0 -79 13.5t-56 35.5q-26 28 -38 64.5t-12 102.5v177h-72v95h622zM410 527h-178l178 -231v231zM210 249q20 -20 64 -20q23 0 44.5 6t39.5 16l-175 228v-120q0 -53 6.5 -74.5t20.5 -35.5zM104 -2
q0 28 19.5 48.5t47.5 20.5t47 -20.5t19 -48.5q0 -29 -19 -49t-47 -20t-47.5 20t-19.5 49z" />
    <glyph glyph-name="sanuktadeva" horiz-adv-x="719" 
d="M635 527v-527h-114v246q-28 -7 -56.5 -9.5t-62.5 -2.5q-53 0 -99 9t-77 22q-14 -8 -30 -15q38 -47 89 -96.5t107 -94.5l-73 -74q-83 74 -149 143.5t-101 116.5q-22 30 -28.5 50t-6.5 37q0 23 17 45t57 22q46 0 79 -35q14 20 19.5 44.5t5.5 49.5q0 19 -3 37t-7 32h-202v95
h733v-95h-98zM391 329q37 0 67.5 3.5t62.5 12.5v182h-207q5 -15 8.5 -35t3.5 -47q0 -34 -7 -60.5t-20 -47.5q21 -4 44 -6t48 -2zM49 27q0 26 17 43.5t42 17.5t42 -17.5t17 -43.5t-17 -44t-42 -18t-42 18t-17 44z" />
    <glyph glyph-name="hanuktadeva" horiz-adv-x="555" 
d="M330 71q31 8 50.5 22t19.5 39q0 29 -25.5 45t-82.5 16q-63 0 -95.5 -24t-32.5 -65q0 -27 11.5 -52.5t43.5 -57.5t94 -77l-75 -76q-88 71 -138 132.5t-50 137.5q0 38 14.5 67.5t40.5 51.5q-19 20 -31 46t-12 61q0 30 10.5 51.5t29.5 35.5q24 20 56.5 27.5t86.5 7.5h113v68
h-358v95h570v-95h-98v-163h-225q-29 0 -40.5 -2.5t-19.5 -9.5q-14 -11 -14 -31q0 -24 21 -45q48 13 102 13q76 0 123.5 -22t70 -56.5t22.5 -74.5q0 -62 -38 -100t-111 -56zM51 -189q0 26 17 43.5t42 17.5t42 -17.5t17 -43.5t-17 -44t-42 -18t-42 18t-17 44z" />
    <glyph glyph-name="kassadeva" horiz-adv-x="762" 
d="M679 527v-527h-114v312q-33 -16 -73 -25t-95 -9q-41 0 -81 8t-75 22q-42 -26 -64 -49t-22 -51t23.5 -50t81.5 -22h15q-3 13 -3 25q0 30 20 46.5t55 16.5q47 0 72.5 -26.5t25.5 -57.5q0 -29 -12 -47t-35 -29q32 -40 76 -81l-80 -50q-26 29 -48.5 57.5t-38.5 53.5
q-13 -1 -26 -1.5t-22 -0.5q-72 0 -120.5 22t-73.5 58.5t-25 81.5q0 52 29 87t81 67q-79 58 -79 140q0 56 44 95t130 39q77 0 125.5 -33t48.5 -94q0 -36 -17 -68t-57 -63q12 -2 24.5 -2.5t25.5 -0.5q55 0 96 13.5t74 36.5v106h-80v95h292v-95h-98zM180 488q0 -25 18.5 -46.5
t45.5 -35.5q35 21 50 42.5t15 43.5q0 21 -14.5 37t-48.5 16q-29 0 -47.5 -15t-18.5 -42z" />
    <glyph glyph-name="janyadeva" horiz-adv-x="685" 
d="M259 224q0 88 -176 134l36 83h369v86h-488v95h700v-95h-98v-527h-114v346h-112q-32 0 -53.5 1t-35.5 3q44 -27 64 -60t20 -75q0 -47 -25.5 -80.5t-69.5 -49.5q29 -14 62.5 -26.5t63.5 -21.5l-40 -83q-54 20 -107 51t-97 64q-56 2 -91.5 17.5t-35.5 57.5q0 29 17.5 44.5
t41.5 15.5q25 0 48.5 -11t51.5 -36q32 5 50.5 23t18.5 44z" />
    <glyph glyph-name="rephdeva" 
d="M-216 615q-21 34 -34 70.5t-13 70.5q0 71 48.5 105.5t121.5 34.5q33 0 62 -5t51 -13l-24 -84q-37 14 -69 14q-40 0 -58.5 -20t-18.5 -57q0 -28 12.5 -57.5t32.5 -58.5h-111z" />
    <glyph glyph-name="vattudeva" 
d="M-478 -156l244 140h60l149 -170l-78 -53l-111 131l-204 -131z" />
    <glyph glyph-name="kaprehalfdeva" horiz-adv-x="637" 
d="M651 527h-160v-190q21 11 47.5 17.5t64.5 6.5h58v-95h-59q-40 0 -63.5 -8t-47.5 -27v-231h-114v144q-30 -20 -64 -32.5t-80 -12.5q-52 0 -96 20t-70.5 59.5t-26.5 98.5q0 55 26.5 95t73 62t108.5 22q26 0 54.5 -2.5t43.5 -6.5l-8 -97q-15 4 -36 6.5t-40 2.5
q-51 0 -79.5 -21.5t-28.5 -59.5q0 -45 27 -64t61 -19q43 0 76 19.5t59 46.5v266h-377v95h651v-95z" />
    <glyph glyph-name="khaprehalfdeva" horiz-adv-x="669" 
d="M717 66q-43 -25 -97 -43.5t-130 -18.5q-93 0 -170 33t-138 86t-107 112q-25 33 -33 55.5t-8 40.5q0 24 17 46t57 22q46 0 79 -35q14 20 19.5 44.5t5.5 49.5q0 37 -10 69h-202v95h684v-95h-370q6 -16 9 -35.5t3 -46.5q0 -77 -36.5 -123.5t-93.5 -73.5q56 -64 126.5 -106
t168.5 -42q67 0 113 15.5t86 39.5zM694 214q-32 -21 -69 -33.5t-86 -12.5q-74 0 -121.5 40.5t-47.5 111.5t48.5 112.5t131.5 41.5q16 0 43 -2t45 -7l-9 -86q-13 3 -29.5 5.5t-35.5 2.5q-40 0 -62.5 -17.5t-22.5 -49.5q0 -34 22.5 -49.5t55.5 -15.5q35 0 63.5 13.5t48.5 30.5
z" />
    <glyph glyph-name="gaprehalfdeva" horiz-adv-x="298" 
d="M232 527v-298q0 -68 -60 -68q-22 0 -45.5 13t-44.5 34t-34 45.5t-13 47.5q0 24 13.5 42t53.5 18h16v166h-118v95h312v-95h-80z" />
    <glyph glyph-name="ghaprehalfdeva" horiz-adv-x="382" 
d="M194 265q0 -33 24 -48t61 -15q52 0 87.5 22.5t61.5 49.5l56 -81q-40 -37 -92 -61.5t-122 -24.5q-88 0 -139 42.5t-51 112.5q0 25 7.5 48t23.5 42q-35 20 -55 51.5t-20 68.5q0 33 9 55h-45v95h397v-95h-230q-17 -19 -17 -44q0 -28 15.5 -45t39.5 -23q30 7 65 7
q13 0 27.5 -1t21.5 -3l-7 -93q-5 1 -12.5 1h-14.5q-43 0 -67 -16t-24 -45z" />
    <glyph glyph-name="ngaprehalfdeva" horiz-adv-x="677" 
d="M368 208q-58 0 -112 -23q-30 15 -57 38t-43.5 53t-16.5 64q0 30 10.5 51t27.5 35q23 18 55 25.5t90 7.5h63v68h-385v95h691v-95h-192v-156h-187q-22 0 -31.5 -2.5t-16.5 -6.5q-13 -10 -13 -26t9 -28t20 -22q44 14 102 14q84 0 132.5 -39t48.5 -107q0 -67 -52 -110.5
t-159 -43.5q-111 0 -193.5 45.5t-140.5 110.5l84 67q55 -60 113 -92.5t134 -32.5q53 0 76.5 16t23.5 43q0 24 -19 37.5t-62 13.5zM530 339q0 27 17.5 45.5t44.5 18.5q26 0 44 -18.5t18 -45.5t-18 -45.5t-44 -18.5q-27 0 -44.5 18.5t-17.5 45.5zM245 -39q14 4 30.5 5.5
t32.5 1.5q69 0 120 -24.5t92 -66t78 -91.5l-78 -54q-53 74 -98.5 108.5t-109.5 34.5q-14 0 -26.5 -2t-22.5 -4z" />
    <glyph glyph-name="caprehalfdeva" horiz-adv-x="421" 
d="M0 622h435v-95h-435v95zM530 184q-38 -33 -87 -58t-116 -25q-85 0 -137.5 42.5t-52.5 110.5q0 28 10.5 52t28.5 41l-139 -2v96h303q19 0 36.5 -0.5t21.5 -1.5l-9 -93h-25q-58 0 -85 -21t-27 -58q0 -33 22.5 -52t57.5 -19q48 0 81 19t61 50z" />
    <glyph glyph-name="chaprehalfdeva" horiz-adv-x="738" 
d="M0 527v95h752v-95h-752zM320 96q75 0 134.5 26.5t94 72t34.5 104.5q0 38 -17.5 65.5t-54.5 27.5q-25 0 -37 -13t-12 -32q0 -25 21 -45t69 -32l-43 -79q-79 24 -116 64t-37 91q0 57 38.5 92.5t113.5 35.5q82 0 135.5 -44.5t53.5 -136.5q0 -54 -24.5 -106t-72.5 -94
t-118.5 -67.5t-163.5 -25.5q-113 0 -168 42t-55 108q0 19 6 39t20 37q-40 21 -62 52t-22 72q0 60 46.5 93.5t127.5 33.5q19 0 46 -2.5t44 -6.5l-8 -91q-14 5 -32 8t-39 3q-71 0 -71 -47q0 -20 17 -32.5t44 -18.5q28 7 61 7q13 0 26 -1t20 -2l-9 -89q-5 1 -12.5 1h-15.5
q-76 0 -76 -51q0 -31 30 -45t84 -14z" />
    <glyph glyph-name="japrehalfdeva" horiz-adv-x="591" 
d="M0 622h605v-95h-605v95zM591 346h-106q-40 0 -59 2q30 -29 47 -63.5t17 -72.5q0 -72 -47 -108t-115 -36q-58 0 -111 28.5t-101.5 99t-91.5 194.5l98 36q44 -128 91.5 -194.5t105.5 -66.5q26 0 42.5 14.5t16.5 44.5q0 39 -27.5 73.5t-72.5 61.5l38 82h275v-95z" />
    <glyph glyph-name="jhaprehalfdeva" horiz-adv-x="505" 
d="M273 208q-28 0 -57.5 -6t-54.5 -17q-31 15 -57.5 38.5t-43 53t-16.5 63.5q0 30 10.5 51t27.5 35q23 18 54.5 25.5t89.5 7.5h76v68h-302v95h520v-95h-104v-156h-199q-22 0 -31.5 -2.5t-16.5 -6.5q-13 -10 -13 -26t8.5 -28t20.5 -22q44 14 102 14q52 0 92 -16q22 -3 48 -5
t49 -2q41 0 68.5 5t47.5 13l17 -92q-27 -11 -55 -15.5t-68 -4.5q-10 0 -21 1q3 -15 3 -32q0 -61 -40 -97.5t-114 -46.5q28 -11 59.5 -22t63.5 -21l-41 -86q-63 29 -120 60t-104 62q-59 3 -93.5 19t-34.5 57q0 29 17.5 44.5t41.5 15.5q45 0 95 -45q15 -2 28 -2q62 0 95 16.5
t33 48.5q0 25 -19 39t-62 14z" />
    <glyph glyph-name="nyaprehalfdeva" horiz-adv-x="576" 
d="M0 622h590v-95h-590v95zM204 420q34 15 66.5 21.5t61.5 6.5q71 0 120.5 -33t63.5 -93q8 -1 16 -1q38 0 67 12v-92q-17 -4 -36 -6t-40 -2h-6q-11 -52 -44 -81t-74.5 -40.5t-79.5 -11.5q-89 0 -164.5 52t-131.5 174l97 40q75 -168 191 -168q50 0 75.5 21.5t25.5 57.5
q0 38 -24.5 55.5t-60.5 17.5q-24 0 -44.5 -6t-43.5 -16z" />
    <glyph glyph-name="ttaprehalfdeva" horiz-adv-x="527" 
d="M541 527h-143v-192h-63q-52 0 -81.5 -6.5t-50.5 -19.5q-50 -32 -50 -90q0 -63 42.5 -91.5t103.5 -28.5q51 0 91 12.5t81 34.5l37 -98q-46 -21 -96 -34.5t-114 -13.5q-75 0 -133.5 26.5t-91.5 76.5t-33 121q0 65 33 110t88 69t123 26v98h-284v95h541v-95zM214 -39
q14 4 30.5 5.5t32.5 1.5q69 0 120 -24.5t92 -66t78 -91.5l-78 -54q-53 74 -98.5 108.5t-109.5 34.5q-14 0 -26.5 -2t-22.5 -4z" />
    <glyph glyph-name="tthaprehalfdeva" horiz-adv-x="606" 
d="M620 527h-222v-106q81 -31 124.5 -90t43.5 -131t-35.5 -116t-94 -64t-128.5 -20q-80 0 -140.5 25t-94 74.5t-33.5 122.5q0 66 32.5 111.5t88 69.5t123.5 26v98h-284v95h620v-95zM304 97q64 0 106 26t42 83q0 42 -26 75.5t-78 53.5h-16q-47 0 -76.5 -6.5t-49.5 -18.5
q-53 -32 -53 -94q0 -61 43 -90t108 -29zM215 -39q14 4 30.5 5.5t32.5 1.5q69 0 120 -24.5t92 -66t78 -91.5l-78 -54q-53 74 -98.5 108.5t-109.5 34.5q-14 0 -26.5 -2t-22.5 -4z" />
    <glyph glyph-name="ddaprehalfdeva" horiz-adv-x="603" 
d="M368 208q-58 0 -112 -23q-30 15 -57 38.5t-43.5 53t-16.5 63.5q0 30 10.5 51t27.5 35q23 18 55 25.5t90 7.5h75v68h-397v95h617v-95h-106v-156h-199q-22 0 -31.5 -2.5t-16.5 -6.5q-13 -10 -13 -26t9 -28t20 -22q44 14 102 14q84 0 132.5 -39t48.5 -107q0 -66 -52 -110
t-159 -44q-111 0 -193.5 45.5t-140.5 110.5l84 67q55 -60 113 -92.5t134 -32.5q53 0 76.5 16t23.5 43q0 24 -19 37.5t-62 13.5zM245 -39q14 4 30.5 5.5t32.5 1.5q69 0 120 -24.5t92 -66t78 -91.5l-78 -54q-53 74 -98.5 108.5t-109.5 34.5q-14 0 -26.5 -2t-22.5 -4z" />
    <glyph glyph-name="ddhaprehalfdeva" horiz-adv-x="587" 
d="M321 0q-84 0 -147.5 27.5t-98.5 79.5t-35 125q0 69 34.5 116.5t94.5 72.5t136 28v78h-305v95h601v-95h-182v-173h-66q-61 0 -94 -9t-54 -22q-25 -17 -38.5 -41t-13.5 -59q0 -93 94 -122q-8 28 -8 59q0 56 40 95t123 39q54 0 88 -19t50.5 -49.5t16.5 -65.5
q0 -71 -62.5 -115.5t-173.5 -44.5zM338 144q0 -27 10 -52q104 4 104 67q0 24 -14 37.5t-36 13.5q-32 0 -48 -19t-16 -47zM222 -39q14 4 30.5 5.5t32.5 1.5q69 0 120 -24.5t92 -66t78 -91.5l-78 -54q-53 74 -98.5 108.5t-109.5 34.5q-14 0 -26.5 -2t-22.5 -4z" />
    <glyph glyph-name="nnaprehalfdeva" horiz-adv-x="493" 
d="M263 128q-103 0 -152 61q-19 25 -29 61t-10 98v179h-72v95h507v-95h-54v-210q0 -50 -9.5 -80.5t-29.5 -54.5q-23 -26 -60.5 -40t-90.5 -14zM262 223q44 0 61 27q10 15 13 33t3 58v186h-153v-186q0 -37 3.5 -55.5t11.5 -32.5q18 -30 61 -30z" />
    <glyph glyph-name="taprehalfdeva" horiz-adv-x="358" 
d="M0 622h371v-95h-371v95zM41 244q0 36 13.5 64.5t34.5 47.5q30 26 72 37.5t116 11.5h109v-95h-78q-57 0 -85 -5.5t-46 -20.5q-22 -18 -22 -55q0 -40 33 -79.5t97 -89.5l-74 -75q-47 39 -85.5 80.5t-61.5 85.5t-23 93z" />
    <glyph glyph-name="thaprehalfdeva" horiz-adv-x="427" 
d="M185 380q-67 9 -104 43.5t-37 91.5q0 60 42 88.5t102 28.5q50 0 92 -19t67 -57t25 -96q0 -64 -33.5 -113t-112.5 -81q20 -28 45.5 -41.5t63.5 -13.5q49 0 87 18.5t70 52.5l57 -82q-43 -34 -94 -59t-128 -25q-92 0 -152.5 52.5t-85.5 153.5q94 20 131 55t37 87
q0 40 -19 63.5t-55 23.5q-23 0 -35.5 -11t-12.5 -28q0 -21 15.5 -33.5t55.5 -17.5z" />
    <glyph glyph-name="daprehalfdeva" horiz-adv-x="544" 
d="M422 -64q-21 33 -39.5 69l-31.5 63q-26 -3 -58 -3q-45 0 -89.5 10.5t-81.5 34t-59.5 63t-22.5 97.5q0 44 16 76t44 54q32 27 78 40.5t103 15.5v71h-281v95h558v-95h-163v-167h-50q-58 0 -91.5 -5.5t-56.5 -18.5q-44 -25 -44 -75q0 -44 34.5 -72t112.5 -28h9.5t11.5 1
q-4 15 -4 26q0 36 24.5 51.5t53.5 15.5q49 0 75.5 -27t26.5 -62q0 -34 -15 -51.5t-39 -27.5q27 -48 72 -109zM294 -39q14 4 30.5 5.5t32.5 1.5q69 0 120 -24.5t92 -66t78 -91.5l-78 -54q-53 74 -98.5 108.5t-109.5 34.5q-14 0 -26.5 -2t-22.5 -4z" />
    <glyph glyph-name="dhaprehalfdeva" horiz-adv-x="393" 
d="M518 176q-44 -38 -94 -61t-120 -23q-88 0 -138.5 42t-50.5 111q0 24 7.5 47.5t22.5 42.5q-45 21 -74 59.5t-29 94.5q0 41 20.5 73.5t56 51t81.5 18.5q64 0 101.5 -30.5t37.5 -76.5q0 -26 -10 -50t-32 -44l-70 45q16 15 16 35q0 37 -41 37q-26 0 -43 -17t-17 -46
q0 -42 31 -62.5t68 -25.5q30 7 64 7q13 0 27 -1t22 -2l-7 -91q-5 1 -12.5 1.5t-14.5 0.5q-44 0 -67.5 -16.5t-23.5 -45.5q0 -33 24 -48t61 -15q51 0 87 22t61 51z" />
    <glyph glyph-name="naprehalfdeva" horiz-adv-x="377" 
d="M0 622h391v-95h-391v95zM230 277v-36q0 -68 -60 -68q-21 0 -45 13t-45 34t-34 45.5t-13 46.5q0 25 13.5 43t53.5 18h297v-96h-167z" />
    <glyph glyph-name="paprehalfdeva" horiz-adv-x="330" 
d="M186 527v-168q0 -53 6 -74.5t20 -35.5q19 -20 62 -20q38 0 71.5 19t53.5 40l57 -83q-41 -28 -86.5 -49.5t-116.5 -21.5q-44 0 -77.5 13.5t-54.5 35.5q-25 28 -37 64.5t-12 102.5v177h-72v95h344v-95h-158z" />
    <glyph glyph-name="phaprehalfdeva" horiz-adv-x="639" 
d="M653 527h-159v-188q21 11 46.5 16.5t64.5 5.5h59v-95h-60q-40 0 -63 -7t-47 -24v-235h-114v170q-27 -17 -58 -26.5t-72 -9.5q-44 0 -77 14t-53 37q-26 28 -37 64t-11 99v179h-72v95h653v-95zM186 527v-171q0 -50 6 -71t19 -36q19 -20 57 -20q35 0 62.5 14t49.5 36v248
h-194z" />
    <glyph glyph-name="baprehalfdeva" horiz-adv-x="404" 
d="M0 622h418v-95h-418v95zM450 172q-40 -32 -89 -52.5t-119 -20.5q-56 0 -102 20.5t-73 59.5t-27 96q0 85 60 133t157 48q33 0 66 -2.5t50 -6.5l-9 -93q-18 4 -41 6.5t-46 2.5q-12 0 -22 -1l109 -136q11 7 21 16t19 18zM152 276q0 -46 29 -66t72 -20q25 0 49 6l-117 146
q-33 -22 -33 -66z" />
    <glyph glyph-name="bhaprehalfdeva" horiz-adv-x="498" 
d="M368 232v-24q0 -40 -17 -56.5t-45 -16.5q-20 0 -43.5 13t-44.5 34t-34 45t-13 46q0 23 14 38.5t53 15.5h17v103q0 40 -5 61t-14 35q-18 25 -54 25q-23 0 -35 -11t-12 -28q0 -23 20 -36t67 -15l-8 -84q-76 6 -123 38t-47 99q0 62 42 90t100 28q89 0 136 -47q20 -19 33 -53
t13 -97v-108h181v-95h-181zM438 622h75v-95h-75v95z" />
    <glyph glyph-name="maprehalfdeva" horiz-adv-x="386" 
d="M231 327h199v-95h-199v-25q0 -39 -16.5 -55.5t-44.5 -16.5q-21 0 -44.5 13t-44.5 34t-34 45t-13 46q0 23 14 38.5t53 15.5h16v200h-117v95h400v-95h-169v-200z" />
    <glyph glyph-name="yaprehalfdeva" horiz-adv-x="353" 
d="M474 200q-46 -38 -95 -61t-117 -23q-65 0 -112.5 30t-76.5 82.5t-41 120.5q59 11 88 34.5t29 66.5q0 22 -8 41.5t-19 35.5h-122v95h367v-95h-132q13 -23 20 -47t7 -51q0 -98 -106 -136q17 -40 44.5 -61t70.5 -21q44 0 81.5 19.5t64.5 51.5z" />
    <glyph glyph-name="raprehalfdeva" horiz-adv-x="408" 
d="M0 527v95h423v-95h-423zM448 257q-38 -19 -77.5 -26.5t-81.5 -7.5q-64 0 -127.5 15.5t-138.5 56.5l39 90q56 -30 105.5 -47t102.5 -17q54 0 90 8.5t75 27.5z" />
    <glyph glyph-name="laprehalfdeva" horiz-adv-x="527" 
d="M0 622h542v-95h-542v95zM548 327q-15 5 -32 5q-22 0 -45.5 -11t-45 -41t-36.5 -85l-107 33q10 37 25 67q-18 15 -37.5 24t-43.5 9q-34 0 -53 -19t-19 -48q0 -31 17.5 -59.5t54 -62t94.5 -79.5l-75 -75q-98 80 -151.5 145t-53.5 139q0 57 25.5 91.5t64 50t76.5 15.5
q48 0 85.5 -13t73.5 -40q60 52 149 52q33 0 59 -8z" />
    <glyph glyph-name="llaprehalfdeva" horiz-adv-x="755" 
d="M0 622h769v-95h-769v95zM748 243q0 -92 -50.5 -145t-135.5 -53q-52 0 -94 18.5t-80 52.5q-33 -44 -73.5 -57.5t-87.5 -13.5q-53 0 -95 23t-67 68t-25 111q0 93 51.5 145.5t134.5 52.5q52 0 93.5 -18.5t79.5 -52.5q35 46 75.5 58.5t85.5 12.5q53 0 95.5 -23t67.5 -68.5
t25 -110.5zM431 195v-1q27 -25 53.5 -39t56.5 -14q35 0 64 24.5t29 83.5q0 55 -24 77.5t-53 22.5q-36 0 -60 -25.5t-49 -86.5zM154 241q0 -55 23 -77.5t52 -22.5q37 0 61 24.5t49 88.5l17 41l1 2q-27 25 -54 38.5t-57 13.5q-34 0 -63 -24.5t-29 -83.5z" />
    <glyph glyph-name="vaprehalfdeva" horiz-adv-x="391" 
d="M0 622h405v-95h-405v95zM435 172q-39 -32 -88 -52.5t-108 -20.5q-57 0 -102 20.5t-71 59.5t-26 96q0 85 58.5 133t154.5 48q27 0 58 -2.5t47 -6.5l-8 -97q-17 4 -38.5 6.5t-42.5 2.5q-56 0 -85.5 -22t-29.5 -61q0 -44 27.5 -62.5t65.5 -18.5q47 0 82 19t60 46z" />
    <glyph glyph-name="shaprehalfdeva" horiz-adv-x="436" 
d="M131 164q-39 0 -66 20t-27 58q0 33 20.5 52t55.5 19q20 0 42.5 -8t49.5 -27q44 17 72 57t28 99q0 54 -25.5 83t-65.5 29q-50 0 -50 -42q0 -14 8.5 -27.5t32.5 -24t70 -13.5l-24 -82q-98 7 -145.5 49t-47.5 100q0 55 40 90.5t116 35.5q53 0 99.5 -22t75 -66.5t28.5 -112.5
q0 -70 -33.5 -129.5t-93.5 -95.5q39 -35 74.5 -75t64.5 -77l-86 -59q-44 59 -81.5 101.5t-69.5 73.5q-30 -6 -62 -6z" />
    <glyph glyph-name="ssaprehalfdeva" horiz-adv-x="391" 
d="M411 295l41 -96q-41 -27 -87 -46t-108 -19q-45 0 -79 13.5t-56 35.5q-26 28 -38 64.5t-12 102.5v177h-72v95h406v-95h-174zM274 229q22 0 43.5 6t40.5 16l-175 228v-120q0 -53 6.5 -74.5t20.5 -35.5q20 -20 64 -20z" />
    <glyph glyph-name="saprehalfdeva" horiz-adv-x="458" 
d="M391 329q31 0 57 2.5t54 8.5l10 -97q-28 -5 -55 -7t-55 -2q-53 0 -99 9t-77 22q-14 -8 -30 -15q38 -47 89 -96.5t107 -94.5l-73 -74q-83 74 -149 143.5t-101 116.5q-22 30 -28.5 50t-6.5 37q0 23 17 45t57 22q46 0 79 -35q14 20 19.5 44.5t5.5 49.5q0 19 -3 37t-7 32
h-202v95h472v-95h-158q5 -15 8.5 -35t3.5 -47q0 -34 -7 -60.5t-20 -47.5q21 -4 44 -6t48 -2z" />
    <glyph glyph-name="haprehalfdeva" horiz-adv-x="472" 
d="M512 192h-199q-49 0 -75 -6t-42 -17q-32 -23 -32 -66q0 -27 11.5 -52t43.5 -57t94 -77l-75 -76q-88 71 -138 132.5t-50 137.5q0 39 15 68t40 50q-19 21 -31 47t-12 61q0 30 10.5 51.5t29.5 35.5q24 20 56.5 27.5t86.5 7.5h49v68h-294v95h486v-95h-79v-163h-161
q-28 0 -39.5 -2.5t-19.5 -9.5q-14 -11 -14 -31q0 -24 22 -46q25 7 60 10t87 3h170v-96z" />
    <glyph glyph-name="zhaprehalfdeva" horiz-adv-x="591" 
d="M0 622h605v-95h-605v95zM328 104q-58 0 -111 27t-101.5 92.5t-91.5 182.5l98 35q44 -118 91.5 -178.5t105.5 -60.5q26 0 42.5 12.5t16.5 39.5q0 34 -27.5 65t-72.5 55l38 82h275v-95h-106h-31.5t-23.5 1q28 -26 44 -57.5t16 -65.5q0 -67 -47 -101t-115 -34zM230 -22
q-22 0 -38.5 17t-16.5 41q0 25 16.5 42t38.5 17q23 0 40 -17t17 -42q0 -24 -17 -41t-40 -17zM416 -22q-23 0 -39.5 17t-16.5 41q0 25 16.5 42t39.5 17t39.5 -17t16.5 -42q0 -24 -16.5 -41t-39.5 -17zM323 -121q-23 0 -39.5 17t-16.5 42q0 24 16.5 41t39.5 17t39.5 -17
t16.5 -41q0 -25 -16.5 -42t-39.5 -17z" />
    <glyph glyph-name="heavyyaprehalfdeva" horiz-adv-x="353" 
d="M265 116q-67 0 -114.5 30t-77 82.5t-41.5 120.5q59 11 88 34.5t29 66.5q0 22 -8 41.5t-20 35.5h-121v95h367v-95h-137l6 -12l191 -245l13 -100q-37 -25 -80.5 -39.5t-94.5 -14.5zM292 329l-21.5 28l-20.5 28q-17 -64 -94 -92q18 -40 46 -61t73 -21q28 0 51 6t42 18z" />
    <glyph glyph-name="kassaprehalfdeva" horiz-adv-x="501" 
d="M542 302q-28 -11 -63 -17.5t-82 -6.5q-41 0 -81 8t-75 22q-42 -26 -64 -49t-22 -51t23.5 -50t81.5 -22h15q-3 13 -3 25q0 30 20 46.5t55 16.5q47 0 72.5 -26.5t25.5 -57.5q0 -29 -12 -47t-35 -29q32 -40 76 -81l-80 -50q-26 29 -48.5 57.5t-38.5 53.5q-13 -1 -26 -1.5
t-22 -0.5q-72 0 -120.5 22t-73.5 58.5t-25 81.5q0 52 29 87t81 67q-79 58 -79 140q0 56 44 95t130 39q77 0 125.5 -33t48.5 -94q0 -36 -17 -68t-57 -63q12 -2 25 -2.5t25 -0.5q35 0 64.5 5.5t55.5 16.5zM180 488q0 -25 18.5 -46.5t45.5 -35.5q35 21 50 42.5t15 43.5
q0 21 -14.5 37t-48.5 16q-29 0 -47.5 -15t-18.5 -42z" />
    <glyph glyph-name="janyaprehalfdeva" horiz-adv-x="458" 
d="M0 622h472v-95h-472v95zM259 224q0 88 -176 134l36 83h364v-95h-107q-32 0 -53.5 1t-35.5 3q44 -27 64 -60t20 -75q0 -47 -25.5 -80.5t-69.5 -49.5q29 -14 62.5 -26.5t63.5 -21.5l-40 -83q-54 20 -107 51t-97 64q-56 2 -91.5 17.5t-35.5 57.5q0 29 17.5 44.5t41.5 15.5
q25 0 48.5 -11t51.5 -36q32 5 50.5 23t18.5 44z" />
    <glyph glyph-name="kanuktaprehalfdeva" horiz-adv-x="637" 
d="M651 527h-160v-190q21 11 47.5 17.5t64.5 6.5h58v-95h-59q-40 0 -63.5 -8t-47.5 -27v-231h-114v144q-30 -20 -64 -32.5t-80 -12.5q-52 0 -96 20t-70.5 59.5t-26.5 98.5q0 55 26.5 95t73 62t108.5 22q26 0 54.5 -2.5t43.5 -6.5l-8 -97q-15 4 -36 6.5t-40 2.5
q-51 0 -79.5 -21.5t-28.5 -59.5q0 -45 27 -64t61 -19q43 0 76 19.5t59 46.5v266h-377v95h651v-95zM92 -14q0 28 19.5 48.5t47.5 20.5t47 -20.5t19 -48.5q0 -29 -19 -49t-47 -20t-47.5 20t-19.5 49z" />
    <glyph glyph-name="khanuktaprehalfdeva" horiz-adv-x="669" 
d="M717 66q-43 -25 -97 -43.5t-130 -18.5q-93 0 -170 33t-138 86t-107 112q-25 33 -33 55.5t-8 40.5q0 24 17 46t57 22q46 0 79 -35q14 20 19.5 44.5t5.5 49.5q0 37 -10 69h-202v95h684v-95h-370q6 -16 9 -35.5t3 -46.5q0 -77 -36.5 -123.5t-93.5 -73.5q56 -64 126.5 -106
t168.5 -42q67 0 113 15.5t86 39.5zM694 214q-32 -21 -69 -33.5t-86 -12.5q-74 0 -121.5 40.5t-47.5 111.5t48.5 112.5t131.5 41.5q16 0 43 -2t45 -7l-9 -86q-13 3 -29.5 5.5t-35.5 2.5q-40 0 -62.5 -17.5t-22.5 -49.5q0 -34 22.5 -49.5t55.5 -15.5q35 0 63.5 13.5t48.5 30.5
zM86 -15q0 28 19.5 48.5t47.5 20.5t47 -20.5t19 -48.5q0 -29 -19 -49t-47 -20t-47.5 20t-19.5 49z" />
    <glyph glyph-name="ganuktaprehalfdeva" horiz-adv-x="298" 
d="M232 527v-298q0 -68 -60 -68q-22 0 -45.5 13t-44.5 34t-34 45.5t-13 47.5q0 24 13.5 42t53.5 18h16v166h-118v95h312v-95h-80zM92 12q0 28 19.5 48.5t47.5 20.5t47 -20.5t19 -48.5q0 -29 -19 -49t-47 -20t-47.5 20t-19.5 49z" />
    <glyph glyph-name="ghanuktaprehalfdeva" horiz-adv-x="382" 
d="M194 265q0 -33 24 -48t61 -15q52 0 87.5 22.5t61.5 49.5l56 -81q-40 -37 -92 -61.5t-122 -24.5q-88 0 -139 42.5t-51 112.5q0 25 7.5 48t23.5 42q-35 20 -55 51.5t-20 68.5q0 33 9 55h-45v95h397v-95h-230q-17 -19 -17 -44q0 -28 15.5 -45t39.5 -23q30 7 65 7
q13 0 27.5 -1t21.5 -3l-7 -93q-5 1 -12.5 1h-14.5q-43 0 -67 -16t-24 -45zM100 -5q0 28 19.5 48.5t47.5 20.5t47 -20.5t19 -48.5q0 -29 -19 -49t-47 -20t-47.5 20t-19.5 49z" />
    <glyph glyph-name="nganuktaprehalfdeva" horiz-adv-x="677" 
d="M368 208q-58 0 -112 -23q-30 15 -57 38t-43.5 53t-16.5 64q0 30 10.5 51t27.5 35q23 18 55 25.5t90 7.5h63v68h-385v95h691v-95h-192v-156h-187q-22 0 -31.5 -2.5t-16.5 -6.5q-13 -10 -13 -26t9 -28t20 -22q44 14 102 14q84 0 132.5 -39t48.5 -107q0 -67 -52 -110.5
t-159 -43.5q-111 0 -193.5 45.5t-140.5 110.5l84 67q55 -60 113 -92.5t134 -32.5q53 0 76.5 16t23.5 43q0 24 -19 37.5t-62 13.5zM530 339q0 27 17.5 45.5t44.5 18.5q26 0 44 -18.5t18 -45.5t-18 -45.5t-44 -18.5q-27 0 -44.5 18.5t-17.5 45.5zM261 -39q14 4 30.5 5.5
t31.5 1.5q69 0 120.5 -24.5t92 -66t77.5 -91.5l-78 -54q-53 74 -98.5 108.5t-109.5 34.5q-14 0 -26 -2l-23 -4zM89 -140q0 29 19 48.5t48 19.5q28 0 47 -19.5t19 -48.5t-19 -48.5t-47 -19.5q-29 0 -48 19.5t-19 48.5z" />
    <glyph glyph-name="canuktaprehalfdeva" horiz-adv-x="421" 
d="M0 622h435v-95h-435v95zM530 184q-38 -33 -87 -58t-116 -25q-85 0 -137.5 42.5t-52.5 110.5q0 28 10.5 52t28.5 41l-139 -2v96h303q19 0 36.5 -0.5t21.5 -1.5l-9 -93h-25q-58 0 -85 -21t-27 -58q0 -33 22.5 -52t57.5 -19q48 0 81 19t61 50zM151 -14q0 28 19.5 48.5
t47.5 20.5t47 -20.5t19 -48.5q0 -29 -19 -49t-47 -20t-47.5 20t-19.5 49z" />
    <glyph glyph-name="chanuktaprehalfdeva" horiz-adv-x="738" 
d="M0 527v95h752v-95h-752zM320 96q75 0 134.5 26.5t94 72t34.5 104.5q0 38 -17.5 65.5t-54.5 27.5q-25 0 -37 -13t-12 -32q0 -25 21 -45t69 -32l-43 -79q-79 24 -116 64t-37 91q0 57 38.5 92.5t113.5 35.5q82 0 135.5 -44.5t53.5 -136.5q0 -54 -24.5 -106t-72.5 -94
t-118.5 -67.5t-163.5 -25.5q-113 0 -168 42t-55 108q0 19 6 39t20 37q-40 21 -62 52t-22 72q0 60 46.5 93.5t127.5 33.5q19 0 46 -2.5t44 -6.5l-8 -91q-14 5 -32 8t-39 3q-71 0 -71 -47q0 -20 17 -32.5t44 -18.5q28 7 61 7q13 0 26 -1t20 -2l-9 -89q-5 1 -12.5 1h-15.5
q-76 0 -76 -51q0 -31 30 -45t84 -14zM292 -134q0 28 19.5 48.5t47.5 20.5t47 -20.5t19 -48.5q0 -29 -19 -49t-47 -20t-47.5 20t-19.5 49z" />
    <glyph glyph-name="januktaprehalfdeva" horiz-adv-x="591" 
d="M0 622h605v-95h-605v95zM591 346h-106q-40 0 -59 2q30 -29 47 -63.5t17 -72.5q0 -72 -47 -108t-115 -36q-58 0 -111 28.5t-101.5 99t-91.5 194.5l98 36q44 -128 91.5 -194.5t105.5 -66.5q26 0 42.5 14.5t16.5 44.5q0 39 -27.5 73.5t-72.5 61.5l38 82h275v-95zM227 -69
q0 28 19.5 48.5t47.5 20.5t47 -20.5t19 -48.5q0 -29 -19 -49t-47 -20t-47.5 20t-19.5 49z" />
    <glyph glyph-name="jhanuktaprehalfdeva" horiz-adv-x="505" 
d="M273 208q-28 0 -57.5 -6t-54.5 -17q-31 15 -57.5 38.5t-43 53t-16.5 63.5q0 30 10.5 51t27.5 35q23 18 54.5 25.5t89.5 7.5h76v68h-302v95h520v-95h-104v-156h-199q-22 0 -31.5 -2.5t-16.5 -6.5q-13 -10 -13 -26t8.5 -28t20.5 -22q44 14 102 14q52 0 92 -16q22 -3 48 -5
t49 -2q41 0 68.5 5t47.5 13l17 -92q-27 -11 -55 -15.5t-68 -4.5q-10 0 -21 1q3 -15 3 -32q0 -61 -40 -97.5t-114 -46.5q28 -11 59.5 -22t63.5 -21l-41 -86q-63 29 -120 60t-104 62q-59 3 -93.5 19t-34.5 57q0 29 17.5 44.5t41.5 15.5q45 0 95 -45q15 -2 28 -2q62 0 95 16.5
t33 48.5q0 25 -19 39t-62 14zM139 -156q0 28 19.5 48.5t47.5 20.5t47 -20.5t19 -48.5q0 -29 -19 -49t-47 -20t-47.5 20t-19.5 49z" />
    <glyph glyph-name="nyanuktaprehalfdeva" horiz-adv-x="576" 
d="M0 622h590v-95h-590v95zM204 420q34 15 66.5 21.5t61.5 6.5q71 0 120.5 -33t63.5 -93q8 -1 16 -1q38 0 67 12v-92q-17 -4 -36 -6t-40 -2h-6q-11 -52 -44 -81t-74.5 -40.5t-79.5 -11.5q-89 0 -164.5 52t-131.5 174l97 40q75 -168 191 -168q50 0 75.5 21.5t25.5 57.5
q0 38 -24.5 55.5t-60.5 17.5q-24 0 -44.5 -6t-43.5 -16zM214 -30q0 28 19.5 48.5t47.5 20.5t47 -20.5t19 -48.5q0 -29 -19 -49t-47 -20t-47.5 20t-19.5 49z" />
    <glyph glyph-name="ttanuktaprehalfdeva" horiz-adv-x="527" 
d="M541 527h-143v-192h-63q-52 0 -81.5 -6.5t-50.5 -19.5q-50 -32 -50 -90q0 -63 42.5 -91.5t103.5 -28.5q51 0 91 12.5t81 34.5l37 -98q-46 -21 -96 -34.5t-114 -13.5q-75 0 -133.5 26.5t-91.5 76.5t-33 121q0 65 33 110t88 69t123 26v98h-284v95h541v-95zM230 -39
q14 4 30.5 5.5t31.5 1.5q69 0 120.5 -24.5t92 -66t77.5 -91.5l-78 -54q-53 74 -98.5 108.5t-109.5 34.5q-14 0 -26 -2l-23 -4zM58 -140q0 29 19 48.5t48 19.5q28 0 47 -19.5t19 -48.5t-19 -48.5t-47 -19.5q-29 0 -48 19.5t-19 48.5z" />
    <glyph glyph-name="tthanuktaprehalfdeva" horiz-adv-x="606" 
d="M620 527h-222v-106q81 -31 124.5 -90t43.5 -131t-35.5 -116t-94 -64t-128.5 -20q-80 0 -140.5 25t-94 74.5t-33.5 122.5q0 66 32.5 111.5t88 69.5t123.5 26v98h-284v95h620v-95zM304 97q64 0 106 26t42 83q0 42 -26 75.5t-78 53.5h-16q-47 0 -76.5 -6.5t-49.5 -18.5
q-53 -32 -53 -94q0 -61 43 -90t108 -29zM231 -39q14 4 30.5 5.5t31.5 1.5q69 0 120.5 -24.5t92 -66t77.5 -91.5l-78 -54q-53 74 -98.5 108.5t-109.5 34.5q-14 0 -26 -2l-23 -4zM59 -140q0 29 19 48.5t48 19.5q28 0 47 -19.5t19 -48.5t-19 -48.5t-47 -19.5q-29 0 -48 19.5
t-19 48.5z" />
    </font>
</defs>
</svg>
