<?xml version="1.0" standalone="no"?>
<!DOCTYPE svg PUBLIC "-//W3C//DTD SVG 1.1//EN" "http://www.w3.org/Graphics/SVG/1.1/DTD/svg11.dtd" >
<svg>
<metadata>
Created by FontForge 20090622 at Thu Sep 27 05:50:42 2018
 By deploy user
Copyright 2015 Google Inc. All Rights Reserved.
</metadata>
<defs>
<font id="NotoSansDevanagariUI-Thin" horiz-adv-x="0" >
  <font-face 
    font-family="Noto Sans Devanagari Th"
    font-weight="100"
    font-stretch="normal"
    units-per-em="1000"
    panose-1="2 11 2 2 4 5 4 2 2 4"
    ascent="800"
    descent="-200"
    bbox="-526 -268 1276 1347"
    underline-thickness="50"
    underline-position="-75"
    unicode-range="U+000D-U+A8FD"
  />
<missing-glyph horiz-adv-x="600" 
d="M94 714h411v-714h-411v714zM454 51v612h-309v-612h309z" />
    <glyph glyph-name=".notdef" horiz-adv-x="600" 
d="M94 714h411v-714h-411v714zM454 51v612h-309v-612h309z" />
    <glyph glyph-name="null" 
 />
    <glyph glyph-name="null" 
 />
    <glyph glyph-name="CR" unicode="&#xd;" horiz-adv-x="260" 
 />
    <glyph glyph-name="space" unicode=" " horiz-adv-x="260" 
 />
    <glyph glyph-name="binducandradeva" unicode="&#x900;" 
d="M-299 732q19 80 61 122t112 42q68 0 111.5 -43.5t71.5 -119.5l-25 -9q-22 69 -60 107.5t-99 38.5q-59 0 -93 -35.5t-54 -110.5zM-97 744q0 -19 -8 -28.5t-20 -9.5q-13 0 -21 10t-8 28q0 20 9 29t20 9t19.5 -9t8.5 -29z" />
    <glyph glyph-name="candrabindudeva" unicode="&#x901;" 
d="M-146 848q0 19 8.5 28.5t20.5 9.5q28 0 28 -38q0 -20 -8.5 -29t-19.5 -9t-20 9t-9 29zM57 860q-19 -80 -61 -122t-112 -42q-69 0 -112.5 43.5t-70.5 119.5l25 9q22 -69 60 -107.5t99 -38.5q59 0 93 35.5t54 110.5z" />
    <glyph glyph-name="anusvaradeva" unicode="&#x902;" 
d="M-144 770q0 18 9 28t22 10q14 0 22 -10.5t8 -27.5q0 -20 -8.5 -29t-21.5 -9q-12 0 -21.5 9.5t-9.5 28.5z" />
    <glyph glyph-name="visargadeva" unicode="&#x903;" horiz-adv-x="230" 
d="M81 434q0 19 9.5 30t24.5 11q16 0 25 -11.5t9 -29.5q0 -20 -10 -30.5t-24 -10.5q-13 0 -23.5 10.5t-10.5 30.5zM81 118q0 19 9.5 30t24.5 11q16 0 25 -11.5t9 -29.5q0 -20 -10 -30.5t-24 -10.5q-13 0 -23.5 10.5t-10.5 30.5z" />
    <glyph glyph-name="ashortdeva" unicode="&#x904;" horiz-adv-x="670" 
d="M405 219q0 -45 -18.5 -72t-47.5 -39.5t-62 -12.5q-51 0 -93.5 26.5t-82 85t-78.5 154.5l26 9q49 -124 101 -186.5t123 -62.5q44 0 74.5 22.5t30.5 77.5q0 43 -25.5 80t-68.5 69q-28 -7 -61 -8l-2 26q80 4 117.5 32t37.5 81q0 51 -29.5 78t-83.5 27q-35 0 -66.5 -9.5
t-66.5 -28.5l-10 26q38 18 70.5 28t72.5 10q65 0 102.5 -35t37.5 -96q0 -42 -22.5 -73.5t-66.5 -48.5l16 -14t15 -15q26 -4 49.5 -5.5t43.5 -1.5q22 0 50 2.5t56 9.5v241h-82v26h78q-18 76 -35.5 111t-60.5 35q-16 0 -30.5 -2t-30.5 -2q-30 0 -51.5 9t-38.5 36t-35 79l24 8
q14 -42 25.5 -65t28 -32t46.5 -9q13 0 28.5 2t32.5 2q27 0 49.5 -11.5t41 -48t33.5 -112.5h118v-26h-115v-596h-26v329q-25 -7 -51 -9.5t-50 -2.5q-21 0 -41.5 1.5t-37.5 5.5q19 -21 30 -47t11 -58z" />
    <glyph glyph-name="adeva" unicode="&#x905;" horiz-adv-x="670" 
d="M405 219q0 -45 -18.5 -72t-47.5 -39.5t-62 -12.5q-51 0 -93.5 26.5t-82 85t-78.5 154.5l26 9q49 -124 101 -186.5t123 -62.5q44 0 74.5 22.5t30.5 77.5q0 43 -25.5 80t-68.5 69q-28 -7 -61 -8l-2 26q80 4 117.5 32t37.5 81q0 51 -29.5 78t-83.5 27q-35 0 -66.5 -9.5
t-66.5 -28.5l-10 26q38 18 70.5 28t72.5 10q65 0 102.5 -35t37.5 -96q0 -42 -22.5 -73.5t-66.5 -48.5l16 -14t15 -15q26 -4 49.5 -5.5t43.5 -1.5q22 0 50 2.5t56 9.5v241h-82v26h223v-26h-115v-596h-26v329q-25 -7 -51 -9.5t-50 -2.5q-21 0 -41.5 1.5t-37.5 5.5
q19 -21 30 -47t11 -58z" />
    <glyph glyph-name="aadeva" unicode="&#x906;" horiz-adv-x="895" 
d="M405 219q0 -45 -18.5 -72t-47.5 -39.5t-62 -12.5q-51 0 -93.5 26.5t-82 85t-78.5 154.5l26 9q49 -124 101 -186.5t123 -62.5q44 0 74.5 22.5t30.5 77.5q0 43 -25.5 80t-68.5 69q-28 -7 -61 -8l-2 26q80 4 117.5 32t37.5 81q0 51 -29.5 78t-83.5 27q-35 0 -66.5 -9.5
t-66.5 -28.5l-10 26q38 18 70.5 28t72.5 10q65 0 102.5 -35t37.5 -96q0 -42 -22.5 -73.5t-66.5 -48.5l16 -14t15 -15q26 -4 49.5 -5.5t43.5 -1.5q22 0 50 2.5t56 9.5v241h-82v26h448v-26h-115v-596h-26v596h-199v-596h-26v329q-25 -7 -51 -9.5t-50 -2.5q-21 0 -41.5 1.5
t-37.5 5.5q19 -21 30 -47t11 -58z" />
    <glyph glyph-name="ideva" unicode="&#x907;" horiz-adv-x="472" 
d="M270 251q-32 0 -61.5 -5.5t-58.5 -21.5q-33 22 -61.5 53.5t-28.5 78.5q0 21 4.5 35t13.5 27q16 22 44 34t88 12h130v132h-340v26h487v-26h-121v-158h-162q-43 0 -66.5 -7.5t-36.5 -25.5q-14 -17 -14 -52q0 -33 21.5 -59.5t44.5 -40.5q23 11 51 17.5t68 6.5q65 0 107 -36
t42 -100q0 -73 -52.5 -107t-132.5 -34q-9 0 -24 1q37 -21 79 -42.5t87 -41.5l-11 -24q-52 26 -102.5 54t-92.5 56q-29 2 -54.5 6.5t-41.5 14.5t-16 27q0 12 7.5 20t25.5 8q19 0 41 -14t43 -37q26 -4 56 -4q161 0 161 117q0 40 -17.5 64t-46 35t-60.5 11z" />
    <glyph glyph-name="iideva" unicode="&#x908;" horiz-adv-x="472" 
d="M270 251q-32 0 -61.5 -5.5t-58.5 -21.5q-33 22 -61.5 53.5t-28.5 78.5q0 21 4.5 35t13.5 27q16 22 44 34t88 12h130v132h-340v26h487v-26h-121v-158h-162q-43 0 -66.5 -7.5t-36.5 -25.5q-14 -17 -14 -52q0 -33 21.5 -59.5t44.5 -40.5q23 11 51 17.5t68 6.5q65 0 107 -36
t42 -100q0 -73 -52.5 -107t-132.5 -34q-9 0 -24 1q37 -21 79 -42.5t87 -41.5l-11 -24q-52 26 -102.5 54t-92.5 56q-29 2 -54.5 6.5t-41.5 14.5t-16 27q0 12 7.5 20t25.5 8q19 0 41 -14t43 -37q26 -4 56 -4q161 0 161 117q0 40 -17.5 64t-46 35t-60.5 11zM330 615
q-28 41 -46 78t-18 80q0 59 36.5 91t88.5 32q33 0 57 -7t45 -17l-10 -25q-23 13 -43 18t-45 5q-52 0 -77.5 -28t-25.5 -72q0 -36 17 -71t51 -84h-30z" />
    <glyph glyph-name="udeva" unicode="&#x909;" horiz-adv-x="494" 
d="M0 622h509v-26h-157q62 -45 62 -118q0 -46 -24 -82.5t-78 -54.5q53 -40 87.5 -89t34.5 -115q0 -67 -38.5 -102t-101.5 -35q-53 0 -96.5 30t-85.5 99t-89 187l26 9q41 -105 78 -171t77 -97t88 -31q30 0 56 10t42.5 34.5t16.5 69.5q0 103 -125 193q-21 -4 -46 -5l-2 26
q82 3 117.5 36.5t35.5 85.5q0 38 -19.5 68.5t-54.5 51.5h-313v26z" />
    <glyph glyph-name="uudeva" unicode="&#x90a;" horiz-adv-x="687" 
d="M0 622h702v-26h-350q62 -45 62 -118q0 -46 -24 -82.5t-78 -54.5q23 -17 43 -36t36 -40q29 32 59 49.5t67 17.5q49 0 84 -33.5t35 -102.5q0 -56 -20 -103.5t-51 -92.5l-24 16q31 43 49.5 85t18.5 98q0 51 -24.5 79t-68.5 28q-35 0 -61 -17.5t-49 -46.5q13 -23 20.5 -49
t7.5 -56q0 -67 -38.5 -102t-101.5 -35q-53 0 -96.5 30t-85.5 99t-89 187l26 9q41 -105 78 -171t77 -97t88 -31q30 0 56 10t42.5 34.5t16.5 69.5q0 103 -125 193q-21 -4 -46 -5l-2 26q82 3 117.5 36.5t35.5 85.5q0 41 -20 71t-52 49h-315v26z" />
    <glyph glyph-name="rvocalicdeva" unicode="&#x90b;" horiz-adv-x="785" 
d="M105 101l-15 23l267 175q-43 58 -72.5 87t-56 39t-60.5 10q-33 0 -63 -8t-69 -26l-10 24q38 17 69.5 26.5t71.5 9.5q37 0 68.5 -12.5t63.5 -43t72 -85.5v276h-371v26h800v-26h-403v-271q45 1 88.5 7.5t77.5 15.5q-9 18 -9 39q0 17 10 29t30 12q23 0 37.5 -14t14.5 -35
q0 -20 -13 -31.5t-34 -16.5q13 -26 26 -47.5t27 -40.5l-8 -20q-44 -13 -68.5 -41t-24.5 -68q0 -57 33 -79.5t76 -22.5q30 0 54.5 6.5t58.5 24.5l9 -25q-33 -17 -62 -24.5t-59 -7.5q-59 0 -98 33.5t-39 94.5q0 42 25 76.5t72 51.5l-26.5 42.5t-21.5 40.5q-38 -11 -86.5 -18
t-89.5 -8v-299h-26v280z" />
    <glyph glyph-name="lvocalicdeva" unicode="&#x90c;" horiz-adv-x="630" 
d="M380 33q0 49 35 88t101 50q14 25 23 56t9 70q0 56 -25.5 81t-69.5 25q-33 0 -63.5 -15t-56 -53t-46.5 -106l-26 8q22 72 54 116q-29 24 -55 36.5t-61 12.5q-56 0 -87.5 -33t-31.5 -85q0 -44 20 -83t65 -84t118 -108l-17 -19q-100 82 -156.5 150.5t-56.5 142.5
q0 53 22 84.5t55.5 46t65.5 14.5q41 0 73 -15t62 -40q25 28 54 41.5t63 14.5v167h-448v26h645v-26h-171v-168q43 -5 72 -35.5t29 -93.5q0 -52 -13.5 -89.5t-27.5 -61.5q-62 -7 -94.5 -39t-32.5 -76q0 -57 33 -79.5t76 -22.5q30 0 54.5 6.5t58.5 24.5l9 -25
q-33 -17 -62 -24.5t-59 -7.5q-59 0 -98 33.5t-39 94.5z" />
    <glyph glyph-name="ecandradeva" unicode="&#x90d;" horiz-adv-x="503" 
d="M518 596h-106v-242q0 -44 -4.5 -67.5t-19.5 -43.5q-14 -19 -39.5 -32t-55.5 -20l-6 26q21 5 40 12.5t32 20.5q16 14 21.5 34.5t5.5 67.5v244h-270v-266q0 -44 4 -71.5t14.5 -46t29.5 -33.5t49 -34l81 -50q49 -31 77.5 -52.5t40.5 -43.5t12 -51q0 -33 -12 -60t-33 -57
l-23 14q16 23 28.5 47.5t12.5 52.5q0 34 -24.5 61.5t-92.5 67.5l-92 56q-20 11 -46 33.5t-37 51.5q-7 17 -11 39t-4 68v274h-90v26h518v-26zM480 870q-19 -80 -61 -122t-112 -42q-69 0 -112.5 43.5t-70.5 119.5l25 9q22 -69 60 -107.5t99 -38.5q59 0 93 35.5t54 110.5z" />
    <glyph glyph-name="eshortdeva" unicode="&#x90e;" horiz-adv-x="503" 
d="M518 596h-106v-242q0 -44 -4.5 -67.5t-19.5 -43.5q-14 -19 -39.5 -32t-55.5 -20l-6 26q21 5 40 12.5t32 20.5q16 14 21.5 34.5t5.5 67.5v244h-270v-266q0 -44 4 -71.5t14.5 -46t29.5 -33.5t49 -34l81 -50q49 -31 77.5 -52.5t40.5 -43.5t12 -51q0 -33 -12 -60t-33 -57
l-23 14q16 23 28.5 47.5t12.5 52.5q0 34 -24.5 61.5t-92.5 67.5l-92 56q-20 11 -46 33.5t-37 51.5q-7 17 -11 39t-4 68v274h-90v26h518v-26zM384 615q-13 53 -24.5 87t-28 50t-45.5 16q-16 0 -30.5 -2t-30.5 -2q-30 0 -51.5 9t-38.5 36t-35 79l24 8q14 -42 25.5 -65t28 -32
t46.5 -9q13 0 28.5 2t32.5 2q27 0 50 -11.5t41.5 -50t33.5 -117.5h-26z" />
    <glyph glyph-name="edeva" unicode="&#x90f;" horiz-adv-x="503" 
d="M518 596h-106v-242q0 -44 -4.5 -67.5t-19.5 -43.5q-14 -19 -39.5 -32t-55.5 -20l-6 26q21 5 40 12.5t32 20.5q16 14 21.5 34.5t5.5 67.5v244h-270v-266q0 -44 4 -71.5t14.5 -46t29.5 -33.5t49 -34l81 -50q49 -31 77.5 -52.5t40.5 -43.5t12 -51q0 -33 -12 -60t-33 -57
l-23 14q16 23 28.5 47.5t12.5 52.5q0 34 -24.5 61.5t-92.5 67.5l-92 56q-20 11 -46 33.5t-37 51.5q-7 17 -11 39t-4 68v274h-90v26h518v-26z" />
    <glyph glyph-name="aideva" unicode="&#x910;" horiz-adv-x="503" 
d="M518 596h-106v-242q0 -44 -4.5 -67.5t-19.5 -43.5q-14 -19 -39.5 -32t-55.5 -20l-6 26q21 5 40 12.5t32 20.5q16 14 21.5 34.5t5.5 67.5v244h-270v-266q0 -44 4 -71.5t14.5 -46t29.5 -33.5t49 -34l81 -50q49 -31 77.5 -52.5t40.5 -43.5t12 -51q0 -33 -12 -60t-33 -57
l-23 14q16 23 28.5 47.5t12.5 52.5q0 34 -24.5 61.5t-92.5 67.5l-92 56q-20 11 -46 33.5t-37 51.5q-7 17 -11 39t-4 68v274h-90v26h518v-26zM384 615q-24 101 -48.5 156.5t-51.5 77t-61 21.5q-23 0 -44.5 -4.5t-36.5 -11.5l-10 26q18 7 39 11.5t51 4.5q52 0 85.5 -31.5
t57 -94t45.5 -155.5h-26z" />
    <glyph glyph-name="ocandradeva" unicode="&#x911;" horiz-adv-x="895" 
d="M405 219q0 -45 -18.5 -72t-47.5 -39.5t-62 -12.5q-51 0 -93.5 26.5t-82 85t-78.5 154.5l26 9q49 -124 101 -186.5t123 -62.5q44 0 74.5 22.5t30.5 77.5q0 43 -25.5 80t-68.5 69q-28 -7 -61 -8l-2 26q80 4 117.5 32t37.5 81q0 51 -29.5 78t-83.5 27q-35 0 -66.5 -9.5
t-66.5 -28.5l-10 26q38 18 70.5 28t72.5 10q65 0 102.5 -35t37.5 -96q0 -42 -22.5 -73.5t-66.5 -48.5l16 -14t15 -15q26 -4 49.5 -5.5t43.5 -1.5q22 0 50 2.5t56 9.5v241h-82v26h448v-26h-115v-596h-26v596h-199v-596h-26v329q-25 -7 -51 -9.5t-50 -2.5q-21 0 -41.5 1.5
t-37.5 5.5q19 -21 30 -47t11 -58zM919 870q-19 -80 -61 -122t-112 -42q-69 0 -112.5 43.5t-70.5 119.5l25 9q22 -69 60 -107.5t99 -38.5q59 0 93 35.5t54 110.5z" />
    <glyph glyph-name="oshortdeva" unicode="&#x912;" horiz-adv-x="895" 
d="M405 219q0 -45 -18.5 -72t-47.5 -39.5t-62 -12.5q-51 0 -93.5 26.5t-82 85t-78.5 154.5l26 9q49 -124 101 -186.5t123 -62.5q44 0 74.5 22.5t30.5 77.5q0 43 -25.5 80t-68.5 69q-28 -7 -61 -8l-2 26q80 4 117.5 32t37.5 81q0 51 -29.5 78t-83.5 27q-35 0 -66.5 -9.5
t-66.5 -28.5l-10 26q38 18 70.5 28t72.5 10q65 0 102.5 -35t37.5 -96q0 -42 -22.5 -73.5t-66.5 -48.5l16 -14t15 -15q26 -4 49.5 -5.5t43.5 -1.5q22 0 50 2.5t56 9.5v241h-82v26h448v-26h-115v-596h-26v596h-199v-596h-26v329q-25 -7 -51 -9.5t-50 -2.5q-21 0 -41.5 1.5
t-37.5 5.5q19 -21 30 -47t11 -58zM767 615q-13 53 -24.5 87t-28 50t-45.5 16q-16 0 -30.5 -2t-30.5 -2q-30 0 -51.5 9t-38.5 36t-35 79l24 8q14 -42 25.5 -65t28 -32t46.5 -9q13 0 28.5 2t32.5 2q27 0 50 -11.5t41.5 -50t33.5 -117.5h-26z" />
    <glyph glyph-name="odeva" unicode="&#x913;" horiz-adv-x="895" 
d="M405 219q0 -45 -18.5 -72t-47.5 -39.5t-62 -12.5q-51 0 -93.5 26.5t-82 85t-78.5 154.5l26 9q49 -124 101 -186.5t123 -62.5q44 0 74.5 22.5t30.5 77.5q0 43 -25.5 80t-68.5 69q-28 -7 -61 -8l-2 26q80 4 117.5 32t37.5 81q0 51 -29.5 78t-83.5 27q-35 0 -66.5 -9.5
t-66.5 -28.5l-10 26q38 18 70.5 28t72.5 10q65 0 102.5 -35t37.5 -96q0 -42 -22.5 -73.5t-66.5 -48.5l16 -14t15 -15q26 -4 49.5 -5.5t43.5 -1.5q22 0 50 2.5t56 9.5v241h-82v26h448v-26h-115v-596h-26v596h-199v-596h-26v329q-25 -7 -51 -9.5t-50 -2.5q-21 0 -41.5 1.5
t-37.5 5.5q19 -21 30 -47t11 -58zM767 615q-24 101 -48.5 156.5t-51.5 77t-61 21.5q-23 0 -44.5 -4.5t-36.5 -11.5l-10 26q18 7 39 11.5t51 4.5q52 0 85.5 -31.5t57 -94t45.5 -155.5h-26z" />
    <glyph glyph-name="audeva" unicode="&#x914;" horiz-adv-x="895" 
d="M405 219q0 -45 -18.5 -72t-47.5 -39.5t-62 -12.5q-51 0 -93.5 26.5t-82 85t-78.5 154.5l26 9q49 -124 101 -186.5t123 -62.5q44 0 74.5 22.5t30.5 77.5q0 43 -25.5 80t-68.5 69q-28 -7 -61 -8l-2 26q80 4 117.5 32t37.5 81q0 51 -29.5 78t-83.5 27q-35 0 -66.5 -9.5
t-66.5 -28.5l-10 26q38 18 70.5 28t72.5 10q65 0 102.5 -35t37.5 -96q0 -42 -22.5 -73.5t-66.5 -48.5l16 -14t15 -15q26 -4 49.5 -5.5t43.5 -1.5q22 0 50 2.5t56 9.5v241h-82v26h448v-26h-115v-596h-26v596h-199v-596h-26v329q-25 -7 -51 -9.5t-50 -2.5q-21 0 -41.5 1.5
t-37.5 5.5q19 -21 30 -47t11 -58zM766 615q-29 53 -56 80t-54 37t-57 10q-21 0 -42 -5.5t-41 -15.5l-9 26q20 8 42.5 14.5t49.5 6.5q51 0 88 -24t66 -73l3 2q-34 107 -66.5 152t-83.5 45q-24 0 -45 -4.5t-36 -11.5l-10 26q18 7 39 11.5t51 4.5q52 0 85.5 -31.5t57 -94
t45.5 -155.5h-27z" />
    <glyph glyph-name="kadeva" unicode="&#x915;" horiz-adv-x="677" 
d="M692 596h-314v-280q30 40 61 60.5t70 20.5q48 0 81.5 -34.5t33.5 -105.5q0 -59 -20 -108t-51 -95l-24 16q31 44 49.5 88.5t18.5 101.5q0 52 -23.5 81.5t-69.5 29.5q-29 0 -60 -20.5t-66 -75.5v-275h-26v240q-28 -34 -62.5 -57.5t-91.5 -23.5q-60 0 -102 38.5t-42 118.5
q0 76 47 117.5t123 41.5q53 0 91 -10l-5 -26q-31 10 -85 10q-66 0 -105 -34t-39 -99q0 -70 33 -100.5t87 -30.5q39 0 76.5 20t74.5 74v317h-352v26h692v-26z" />
    <glyph glyph-name="khadeva" unicode="&#x916;" horiz-adv-x="732" 
d="M632 596v-596h-26v60q-71 -42 -162 -42q-114 0 -201 62t-163 186q-16 25 -21.5 43.5t-5.5 31.5q0 18 11 27t25 9q21 0 36.5 -12.5t31.5 -39.5q35 21 51.5 57.5t16.5 85.5q0 31 -8.5 66.5t-22.5 61.5h-194v26h747v-26h-115zM484 211q42 0 72 14t50 34v337h-384
q12 -22 20.5 -57.5t8.5 -71.5q0 -77 -37 -124t-109 -72q72 -115 153 -171t182 -56q96 0 166 45v138q-20 -18 -51.5 -30t-71.5 -12t-73.5 17t-53.5 49.5t-20 80.5q0 51 22.5 84.5t59 50.5t78.5 17q21 0 40.5 -2.5t32.5 -5.5l-5 -26q-15 4 -31.5 6t-37.5 2q-58 0 -95 -32.5
t-37 -93.5q0 -62 35 -91.5t86 -29.5z" />
    <glyph glyph-name="gadeva" unicode="&#x917;" horiz-adv-x="504" 
d="M156 596v-312q0 -21 -8.5 -30t-19.5 -9q-16 0 -32.5 12t-27 29.5t-10.5 34.5q0 14 10 22.5t36 8.5h26v244h-130v26h519v-26h-115v-596h-26v596h-222z" />
    <glyph glyph-name="ghadeva" unicode="&#x918;" horiz-adv-x="529" 
d="M544 596h-115v-596h-26v226q-23 -23 -62 -45t-96 -22q-63 0 -106 33.5t-43 101.5q0 32 15 62t43 47q-45 13 -73.5 43.5t-28.5 77.5q0 21 6 38.5t17 33.5h-75v26h544v-26zM123 295q0 -61 35 -85.5t88 -24.5q48 0 88.5 21t68.5 56v334h-296q-13 -13 -21 -30.5t-8 -40.5
q0 -48 32.5 -72.5t81.5 -30.5q31 10 65 10q10 0 19.5 -0.5t17.5 -1.5l-4 -26q-8 1 -18 1.5t-17 0.5q-33 0 -63 -11.5t-49.5 -36t-19.5 -63.5z" />
    <glyph glyph-name="ngadeva" unicode="&#x919;" horiz-adv-x="576" 
d="M348 251q-33 0 -63 -5.5t-59 -21.5q-33 22 -61.5 54t-28.5 81q0 36 18 60q16 21 43.5 33t85.5 12h129v132h-412v26h591v-26h-153v-158h-161q-75 0 -100 -32q-14 -17 -14 -50q0 -34 21.5 -61.5t44.5 -41.5q23 11 51 17.5t68 6.5q68 0 108.5 -37t40.5 -101
q0 -58 -43.5 -98.5t-133.5 -40.5q-98 0 -167 43t-123 109l22 16q57 -74 124.5 -108t142.5 -34q78 0 114.5 31.5t36.5 82.5q0 58 -36 84.5t-86 26.5zM474 360q0 18 9 28t22 10q14 0 22 -10.5t8 -27.5q0 -20 -8.5 -29t-21.5 -9q-12 0 -21.5 9.5t-9.5 28.5z" />
    <glyph glyph-name="cadeva" unicode="&#x91a;" horiz-adv-x="559" 
d="M574 596h-115v-596h-26v217q-22 -21 -59 -39.5t-89 -18.5q-68 0 -106 37.5t-38 99.5q0 43 19.5 72.5t64.5 49.5l-186 -2v28h222h60t46 -1l-2 -25h-38q-71 0 -115 -30.5t-44 -91.5q0 -42 17 -66.5t44.5 -34.5t57.5 -10q49 0 85.5 20.5t60.5 44.5v346h-433v26h574v-26z" />
    <glyph glyph-name="chadeva" unicode="&#x91b;" horiz-adv-x="665" 
d="M273 26q73 0 131 24.5t98 66t61 94.5t21 110q0 67 -30 106.5t-83 39.5q-49 0 -73.5 -26.5t-24.5 -66.5q0 -45 37.5 -82t113.5 -52l-9 -25q-89 22 -129 64.5t-40 95.5q0 48 29.5 80.5t80.5 36.5v104h-456v26h680v-26h-198v-103q53 -4 91 -47t38 -126q0 -61 -23 -118.5
t-66.5 -103t-105.5 -72t-141 -26.5q-77 0 -121.5 37t-44.5 98q0 68 53 105q-50 17 -80 51t-30 80q0 42 19.5 69t51 40t68.5 13q23 0 42.5 -3.5t34.5 -7.5l-3 -26q-31 11 -73 11q-55 0 -84 -24.5t-29 -73.5q0 -46 33.5 -72.5t79.5 -39.5q28 10 58 10q8 0 17.5 -0.5t16.5 -1.5
l-2 -26q-6 1 -14.5 1.5t-18.5 0.5q-47 0 -80 -26.5t-33 -79.5q0 -55 39 -82t98 -27z" />
    <glyph glyph-name="jadeva" unicode="&#x91c;" horiz-adv-x="660" 
d="M560 596v-596h-26v415h-189q-36 0 -69 2q55 -41 87 -88t32 -109q0 -61 -35.5 -90t-81.5 -29q-48 0 -90.5 29t-83 96.5t-81.5 183.5l26 9q52 -151 106 -221.5t121 -70.5q45 0 68.5 24.5t23.5 70.5q0 62 -38 109.5t-96 87.5l11 22h289v155h-534v26h675v-26h-115z" />
    <glyph glyph-name="jhadeva" unicode="&#x91d;" horiz-adv-x="686" 
d="M270 251q-32 0 -61.5 -5.5t-58.5 -21.5q-33 22 -61.5 54t-28.5 81q0 20 4.5 34t13.5 26q16 21 44 33t88 12h130v132h-340v26h701v-26h-115v-596h-26v245q-24 -8 -49 -11.5t-56 -3.5q-17 0 -35 1t-36 4q37 -38 37 -94q0 -73 -52.5 -107t-132.5 -34h-23q36 -20 78.5 -41.5
t86.5 -41.5l-11 -24q-52 26 -102.5 54t-92.5 56q-29 2 -54.5 6.5t-41.5 14.5t-16 27q0 12 7.5 20t25.5 8q19 0 41 -14t43 -37q26 -4 53 -4q164 0 164 117q0 40 -17.5 64t-46 35t-60.5 11zM454 256q30 0 54.5 3.5t51.5 11.5v325h-194v-158h-162q-43 0 -66.5 -7.5t-36.5 -24.5
q-14 -17 -14 -50q0 -34 21.5 -61.5t44.5 -41.5q23 11 51 17.5t68 6.5q32 0 59 -10q26 -5 55.5 -8t67.5 -3z" />
    <glyph glyph-name="nyadeva" unicode="&#x91e;" horiz-adv-x="660" 
d="M172 425q26 13 54.5 21.5t60.5 8.5q59 0 100 -34.5t44 -102.5q8 -1 17 -1q23 0 44.5 5t41.5 16v258h-534v26h675v-26h-115v-596h-26v309q-17 -8 -38.5 -13t-48.5 -5q-3 0 -7 0.5t-10 1.5q-5 -69 -50.5 -101.5t-111.5 -32.5q-79 0 -138.5 47.5t-105.5 155.5l26 10
q42 -100 94.5 -143.5t121.5 -43.5q74 0 106.5 34.5t32.5 89.5q0 63 -33.5 91.5t-83.5 28.5q-32 0 -55.5 -8t-50.5 -22z" />
    <glyph glyph-name="ttadeva" unicode="&#x91f;" horiz-adv-x="474" 
d="M489 596h-168v-200h-17q-58 0 -95.5 -11t-66.5 -34q-61 -47 -61 -132q0 -95 54 -144t138 -49q49 0 86 10t82 32l9 -25q-40 -20 -83.5 -31.5t-94.5 -11.5q-64 0 -113 26t-77 75t-28 118q0 65 31.5 110t86 69t123.5 24v174h-295v26h489v-26z" />
    <glyph glyph-name="tthadeva" unicode="&#x920;" horiz-adv-x="549" 
d="M564 596h-243v-176q90 -36 132 -93t42 -127q0 -69 -29.5 -113.5t-79.5 -65.5t-111 -21q-65 0 -115 26t-78 75t-28 118q0 65 31.5 110t86 69t123.5 24v174h-295v26h564v-26zM275 26q55 0 99 18.5t69.5 57t25.5 98.5t-39.5 114t-116.5 82h-9q-58 0 -95.5 -11t-66.5 -34
q-61 -47 -61 -137q0 -91 53.5 -139.5t140.5 -48.5z" />
    <glyph glyph-name="ddadeva" unicode="&#x921;" horiz-adv-x="548" 
d="M348 251q-33 0 -63 -5.5t-59 -21.5q-33 22 -61.5 54t-28.5 81q0 36 18 60q16 21 43.5 33t85.5 12h129v132h-412v26h563v-26h-125v-158h-161q-75 0 -100 -32q-14 -17 -14 -50q0 -34 21.5 -61.5t44.5 -41.5q23 11 51 17.5t68 6.5q68 0 108.5 -37t40.5 -101
q0 -58 -43.5 -98.5t-133.5 -40.5q-98 0 -167 43t-123 109l22 16q57 -74 124.5 -108t142.5 -34q78 0 114.5 31.5t36.5 82.5q0 58 -36 84.5t-86 26.5z" />
    <glyph glyph-name="ddhadeva" unicode="&#x922;" horiz-adv-x="519" 
d="M284 0q-66 0 -118 27t-81.5 78t-29.5 124q0 67 32.5 114t90 72.5t131.5 25.5h21v155h-330v26h534v-26h-178v-181h-39q-59 0 -99 -11t-69 -34q-67 -53 -67 -142q0 -94 51 -145t128 -57q-31 56 -31 114q0 52 32 87.5t91 35.5q55 0 85 -33t30 -85q0 -63 -50 -104t-134 -41z
M257 139q0 -35 9 -62.5t24 -51.5q72 2 111.5 35.5t39.5 84.5q0 44 -22.5 68t-66.5 24q-46 0 -70.5 -27t-24.5 -71z" />
    <glyph glyph-name="nnadeva" unicode="&#x923;" horiz-adv-x="650" 
d="M550 596v-596h-26v596h-156v-253q0 -49 -12 -84t-42 -56q-32 -24 -86 -24q-46 0 -78 20q-60 38 -60 145v252h-90v26h665v-26h-115zM228 205q46 0 70 18q28 19 36 55.5t8 81.5v236h-226v-236q0 -50 8 -84.5t37 -52.5q11 -7 28 -12.5t39 -5.5z" />
    <glyph glyph-name="tadeva" unicode="&#x924;" horiz-adv-x="509" 
d="M409 596v-596h-26v362h-126q-56 0 -91.5 -8t-57.5 -29q-10 -10 -19.5 -28t-9.5 -48q0 -43 20 -79t57 -73l88 -84l-17 -19q-47 42 -87 81.5t-64 82.5t-24 94q0 26 10 54t41 49q23 16 56.5 24.5t103.5 8.5h120v208h-383v26h524v-26h-115z" />
    <glyph glyph-name="thadeva" unicode="&#x925;" horiz-adv-x="571" 
d="M471 596v-596h-26v225q-26 -23 -65.5 -42.5t-96.5 -19.5q-70 0 -119 37.5t-76 126.5q84 13 127 49.5t43 104.5q0 57 -29.5 91t-83.5 34q-35 0 -54 -19t-19 -46q0 -25 11 -42.5t40 -28t82 -13.5l-2 -26q-76 5 -116.5 30.5t-40.5 79.5q0 44 30.5 67.5t73.5 23.5
q34 0 65 -17t50.5 -50t19.5 -82q0 -55 -22 -89.5t-59 -54.5t-81 -30q25 -65 63.5 -92.5t100.5 -27.5q47 0 86.5 18t71.5 52v337h-108v26h249v-26h-115z" />
    <glyph glyph-name="dadeva" unicode="&#x926;" horiz-adv-x="469" 
d="M408 -44q-13 19 -28.5 45t-29 51t-22.5 44q-13 -2 -27.5 -3t-35.5 -1q-37 0 -74.5 10t-68.5 32.5t-49.5 58.5t-18.5 88q0 42 14.5 73t38.5 51q31 27 78.5 40t109.5 13h3v138h-298v26h484v-26h-160v-164h-26q-56 0 -97.5 -9.5t-67.5 -29.5q-24 -18 -38 -47.5t-14 -64.5
q0 -73 48 -118t137 -45q11 0 23.5 0.5t25.5 2.5q-5 9 -8 18.5t-3 20.5q0 17 12 29.5t33 12.5q23 0 38.5 -14.5t15.5 -36.5q0 -19 -13 -32t-36 -17q32 -66 76 -133z" />
    <glyph glyph-name="dhadeva" unicode="&#x927;" horiz-adv-x="540" 
d="M555 596h-115v-596h-26v192q-24 -24 -63.5 -46t-98.5 -22q-64 0 -108.5 34t-44.5 101q0 30 13.5 59t41.5 48q-54 15 -86 50t-32 91t36.5 90.5t88.5 34.5q43 0 71.5 -24.5t28.5 -67.5q0 -46 -31 -81l-22 16q26 27 26 65q0 24 -17 45t-56 21q-45 0 -71.5 -29t-26.5 -75
q0 -51 34 -79.5t91 -37.5q34 12 72 12q10 0 19 -0.5t17 -1.5l-3 -26q-7 1 -17.5 1.5t-17.5 0.5q-33 0 -63.5 -11.5t-49.5 -36t-19 -63.5q0 -62 35.5 -86t90.5 -24q50 0 91.5 21t70.5 56v369h-80v26h221v-26z" />
    <glyph glyph-name="nadeva" unicode="&#x928;" horiz-adv-x="487" 
d="M0 622h502v-26h-115v-596h-26v339h-216v-42q0 -21 -8 -30t-21 -9q-16 0 -32 13t-26.5 30.5t-10.5 32.5q0 14 9.5 22.5t32.5 8.5h272v231h-361v26z" />
    <glyph glyph-name="nnnadeva" unicode="&#x929;" horiz-adv-x="487" 
d="M0 622h502v-26h-115v-596h-26v339h-216v-42q0 -21 -8 -30t-21 -9q-16 0 -32 13t-26.5 30.5t-10.5 32.5q0 14 9.5 22.5t32.5 8.5h272v231h-361v26zM140 28q0 18 8.5 28t22.5 10t22 -10.5t8 -27.5q0 -20 -8.5 -29t-21.5 -9q-12 0 -21.5 9.5t-9.5 28.5z" />
    <glyph glyph-name="padeva" unicode="&#x92a;" horiz-adv-x="527" 
d="M427 596v-596h-26v250q-26 -24 -64.5 -44t-89.5 -20q-37 0 -64 9t-48 31q-22 22 -32.5 59t-10.5 99v212h-92v26h542v-26h-115zM401 596h-283v-195q0 -71 9 -104t25 -51q17 -20 41 -27t51 -7q46 0 85.5 19t71.5 54v311z" />
    <glyph glyph-name="phadeva" unicode="&#x92b;" horiz-adv-x="703" 
d="M404 596v-279q27 36 58 58t73 22q48 0 81.5 -34.5t33.5 -105.5q0 -59 -20 -108t-51 -95l-24 16q31 44 49.5 88.5t18.5 101.5q0 52 -23.5 81.5t-69.5 29.5q-30 0 -60 -20.5t-66 -73.5v-277h-26v250q-23 -26 -57.5 -45t-84.5 -19q-32 0 -58 9t-45 31q-20 23 -30.5 59.5
t-10.5 99.5v211h-92v26h718v-26h-314zM118 596v-201q0 -66 8.5 -98.5t23.5 -50.5q13 -15 33.5 -24.5t51.5 -9.5q41 0 75 16t68 58v310h-260z" />
    <glyph glyph-name="badeva" unicode="&#x92c;" horiz-adv-x="504" 
d="M519 596h-115v-596h-26v226q-25 -25 -65 -46t-99 -21q-70 0 -115 38.5t-45 115.5q0 78 49.5 120t135.5 42q35 0 59.5 -2.5t41.5 -7.5l-5 -26q-17 5 -39.5 7.5t-59.5 2.5q-51 0 -85 -16l180 -213q25 17 47 41v335h-378v26h519v-26zM81 313q0 -67 37.5 -97.5t97.5 -30.5
q49 0 94 23l-182 213q-47 -35 -47 -108z" />
    <glyph glyph-name="bhadeva" unicode="&#x92d;" horiz-adv-x="625" 
d="M150 632q22 0 47 -10t42 -33q15 -20 25 -51t10 -97v-127h225v282h-163v26h304v-26h-115v-596h-26v288h-225v-32q0 -41 -32 -41q-16 0 -31 12t-25 28.5t-10 29.5q0 12 8.5 20.5t29.5 8.5h34v115q0 57 -6.5 87.5t-18.5 50.5q-15 22 -34.5 30.5t-43.5 8.5q-35 0 -54 -19
t-19 -46q0 -25 11 -42.5t40 -28t82 -13.5l-2 -26q-76 5 -116.5 30.5t-40.5 79.5q0 44 30.5 67.5t73.5 23.5z" />
    <glyph glyph-name="madeva" unicode="&#x92e;" horiz-adv-x="530" 
d="M430 596v-596h-26v288h-250v-32q0 -41 -32 -41q-16 0 -31 12t-25 28.5t-10 29.5q0 12 8.5 20.5t29.5 8.5h34v282h-128v26h545v-26h-115zM404 596h-250v-282h250v282z" />
    <glyph glyph-name="yadeva" unicode="&#x92f;" horiz-adv-x="525" 
d="M540 622v-26h-115v-596h-26v226q-25 -24 -63.5 -43.5t-87.5 -19.5q-81 0 -126 45t-76 141q64 15 91.5 45.5t27.5 82.5q0 36 -13.5 64.5t-37.5 54.5h-114v26h540zM81 330q23 -66 60 -103.5t107 -37.5q86 0 151 72v335h-252q19 -24 32 -54t13 -66q0 -60 -30 -94t-81 -52z
" />
    <glyph glyph-name="radeva" unicode="&#x930;" horiz-adv-x="367" 
d="M342 7l-17 -19q-57 54 -106 106.5t-86 98.5t-57 80q-13 22 -18 38.5t-5 29.5q0 18 11 27t25 9q20 0 35 -11.5t31 -37.5q42 21 71 60t29 96q0 42 -10 69t-21 43h-224v26h382v-26h-128q11 -21 19 -53t8 -61q0 -59 -26.5 -98.5t-67 -65.5t-84.5 -45q32 -44 72 -91.5t83 -93
t84 -81.5z" />
    <glyph glyph-name="rradeva" unicode="&#x931;" horiz-adv-x="367" 
d="M342 7l-17 -19q-57 54 -106 106.5t-86 98.5t-57 80q-13 22 -18 38.5t-5 29.5q0 18 11 27t25 9q20 0 35 -11.5t31 -37.5q42 21 71 60t29 96q0 42 -10 69t-21 43h-224v26h382v-26h-128q11 -21 19 -53t8 -61q0 -59 -26.5 -98.5t-67 -65.5t-84.5 -45q32 -44 72 -91.5t83 -93
t84 -81.5zM79 28q0 38 31 38q14 0 22 -10.5t8 -27.5q0 -20 -8.5 -29t-21.5 -9t-22 9.5t-9 28.5z" />
    <glyph glyph-name="ladeva" unicode="&#x932;" horiz-adv-x="606" 
d="M0 596v26h621v-26h-115v-596h-26v401q-11 2 -27 2q-33 0 -63.5 -15t-56 -53t-46.5 -106l-26 8q22 72 54 116q-29 24 -55 36.5t-61 12.5q-56 0 -87.5 -33t-31.5 -85q0 -44 20 -83t65 -84t118 -108l-17 -19q-100 82 -156.5 150.5t-56.5 142.5q0 53 22 84.5t55.5 46
t65.5 14.5q41 0 73 -15t62 -40q26 29 57 42.5t66 13.5q14 0 26 -2v169h-480z" />
    <glyph glyph-name="lladeva" unicode="&#x933;" horiz-adv-x="715" 
d="M0 596v26h730v-26h-182v-149q47 -10 80 -53.5t33 -122.5q0 -51 -19.5 -91.5t-55.5 -64t-85 -23.5q-44 0 -86 20t-84 68q-29 -52 -62.5 -70t-73.5 -18q-37 0 -69.5 20t-52 59.5t-19.5 99.5q0 51 19.5 91.5t55 64t85.5 23.5q44 0 85.5 -20t83.5 -67q30 51 63 69t74 18h2
v146h-522zM358 237q-7 -18 -14 -33q38 -44 74.5 -65t82.5 -21q57 0 95 39t38 115q0 78 -33.5 115t-82.5 37q-42 0 -74 -24.5t-59 -93.5zM81 270q0 -78 33.5 -115t83.5 -37q41 0 72.5 25t59.5 97l26 65q7 18 15 34q-38 43 -74.5 64t-82.5 21q-57 0 -95 -39t-38 -115z" />
    <glyph glyph-name="llladeva" unicode="&#x934;" horiz-adv-x="715" 
d="M0 596v26h730v-26h-182v-149q47 -10 80 -53.5t33 -122.5q0 -51 -19.5 -91.5t-55.5 -64t-85 -23.5q-44 0 -86 20t-84 68q-29 -52 -62.5 -70t-73.5 -18q-37 0 -69.5 20t-52 59.5t-19.5 99.5q0 51 19.5 91.5t55 64t85.5 23.5q44 0 85.5 -20t83.5 -67q30 51 63 69t74 18h2
v146h-522zM358 237q-7 -18 -14 -33q38 -44 74.5 -65t82.5 -21q57 0 95 39t38 115q0 78 -33.5 115t-82.5 37q-42 0 -74 -24.5t-59 -93.5zM81 270q0 -78 33.5 -115t83.5 -37q41 0 72.5 25t59.5 97l26 65q7 18 15 34q-38 43 -74.5 64t-82.5 21q-57 0 -95 -39t-38 -115zM159 -66
q0 18 8.5 28t22.5 10t22 -10.5t8 -27.5q0 -20 -8.5 -29t-21.5 -9q-12 0 -21.5 9.5t-9.5 28.5z" />
    <glyph glyph-name="vadeva" unicode="&#x935;" horiz-adv-x="494" 
d="M509 596h-115v-596h-25v223q-25 -24 -64 -44t-96 -20q-65 0 -110 38.5t-45 115.5q0 78 48.5 120t131.5 42q33 0 56.5 -2.5t40.5 -7.5l-5 -26q-17 5 -39 7.5t-57 2.5q-70 0 -109.5 -34.5t-39.5 -101.5t37.5 -97.5t92.5 -30.5q46 0 86 19t71 53v339h-368v26h509v-26z" />
    <glyph glyph-name="shadeva" unicode="&#x936;" horiz-adv-x="602" 
d="M111 206q-38 0 -53.5 13.5t-15.5 27.5q0 17 11 24.5t28 7.5q41 0 85 -37q56 20 93 73t37 129q0 79 -33 120.5t-89 41.5q-43 0 -61.5 -22.5t-18.5 -54.5q0 -14 5.5 -32t22 -34t48 -26.5t83.5 -10.5l-5 -26q-85 0 -133 35t-48 96q0 44 29 72.5t81 28.5q39 0 72.5 -21.5
t53.5 -64t20 -104.5q0 -49 -17.5 -93t-48.5 -77.5t-72 -50.5q26 -25 57 -59.5t62 -73.5t57 -75l-20 -15q-56 78 -98.5 127.5t-83.5 86.5q-23 -6 -48 -6zM502 596v-596h-26v596h-104v26h245v-26h-115z" />
    <glyph glyph-name="ssadeva" unicode="&#x937;" horiz-adv-x="531" 
d="M546 622v-26h-115v-596h-26v249q-29 -24 -67.5 -43.5t-86.5 -19.5q-39 0 -67 9t-49 31q-22 24 -32.5 60t-10.5 98v212h-92v26h546zM405 596h-266l266 -321v321zM152 246q16 -19 41 -26.5t53 -7.5q43 0 76.5 14.5t60.5 36.5l-265 321v-183q0 -71 9 -103.5t25 -51.5z" />
    <glyph glyph-name="sadeva" unicode="&#x938;" horiz-adv-x="596" 
d="M496 596v-596h-26v301q-31 -9 -64.5 -14.5t-79.5 -5.5q-34 0 -76 5t-78 19q-28 -19 -67 -34q47 -66 107 -136t123 -129l-19 -18q-85 85 -147.5 161t-91.5 123q-13 22 -18.5 39t-5.5 30q0 18 11 27t25 9q21 0 36.5 -12.5t31.5 -40.5q35 22 51.5 58.5t16.5 85.5
q0 31 -8.5 66.5t-22.5 61.5h-194v26h611v-26h-115zM325 307q41 0 77 4.5t68 15.5v269h-248q12 -22 20.5 -57.5t8.5 -71.5q0 -48 -14 -83t-42 -61q26 -7 58.5 -11.5t71.5 -4.5z" />
    <glyph glyph-name="hadeva" unicode="&#x939;" horiz-adv-x="490" 
d="M308 39q41 12 69 37.5t28 74.5q0 50 -32 83t-110 33q-82 0 -124.5 -38.5t-42.5 -99.5q0 -25 6.5 -49t25 -51t53.5 -61.5t91 -81.5l-17 -19q-97 79 -141.5 139t-44.5 121q0 43 17.5 75.5t47.5 54.5q-22 19 -38 43.5t-16 58.5q0 36 18 60q16 21 43.5 33t85.5 12h137v132
h-364v26h505v-26h-115v-158h-169q-75 0 -100 -32q-14 -17 -14 -50q0 -27 15.5 -48.5t34.5 -37.5q46 23 107 23q62 0 98.5 -20t53 -52.5t16.5 -67.5q0 -57 -30 -88t-85 -51z" />
    <glyph glyph-name="oevowelsigndeva" unicode="&#x93a;" 
d="M-126 615v190h26v-190h-26z" />
    <glyph glyph-name="ooevowelsigndeva" unicode="&#x93b;" horiz-adv-x="225" 
d="M125 596v-596h-26v596h-99v26h240v-26h-115zM99 615v190h26v-190h-26z" />
    <glyph glyph-name="nuktadeva" unicode="&#x93c;" 
d="M-315 -134q0 18 8.5 28t22.5 10t22 -10.5t8 -27.5q0 -20 -8.5 -29t-21.5 -9q-12 0 -21.5 9.5t-9.5 28.5z" />
    <glyph glyph-name="avagrahadeva" unicode="&#x93d;" horiz-adv-x="426" 
d="M373 184q0 -46 -18.5 -76t-49.5 -45.5t-67 -15.5q-40 0 -74.5 15.5t-67.5 52t-70 98.5l24 14q39 -71 82 -112.5t104 -41.5q50 0 80 28t30 84q0 34 -12 61.5t-38.5 55.5t-70.5 65q-47 39 -71 66t-32 48t-8 46q0 20 8.5 36.5t22.5 29.5q17 16 44.5 22.5t72.5 6.5h94v-26
h-103q-41 0 -59 -5.5t-31 -15.5q-22 -18 -22 -50q0 -23 9.5 -43.5t34.5 -45t70 -61.5q51 -41 76 -74t33.5 -61t8.5 -56z" />
    <glyph glyph-name="aavowelsigndeva" unicode="&#x93e;" horiz-adv-x="225" 
d="M125 596v-596h-26v596h-99v26h240v-26h-115z" />
    <glyph glyph-name="ivowelsigndeva" unicode="&#x93f;" horiz-adv-x="225" 
d="M99 596h-99v26h93q-13 23 -23.5 51t-10.5 65q0 46 23 81.5t63.5 56t91.5 20.5q83 0 148.5 -35t120.5 -98t104 -148h-29q-56 90 -109.5 146.5t-110 82.5t-122.5 26q-67 0 -110 -36.5t-43 -101.5q0 -34 11 -61t25 -49h118v-26h-115v-596h-26v596z" />
    <glyph glyph-name="iivowelsigndeva" unicode="&#x940;" horiz-adv-x="225" 
d="M-134 615q-17 34 -29.5 71.5t-12.5 79.5q0 55 28 92.5t84 37.5q51 0 84.5 -31.5t56.5 -92.5t44 -150h119v-26h-115v-596h-26v596h-99v26h95q-23 98 -46.5 152t-50 75t-59.5 21q-47 0 -67.5 -29t-20.5 -76q0 -45 12 -79.5t31 -70.5h-28z" />
    <glyph glyph-name="uvowelsigndeva" unicode="&#x941;" 
d="M-220 -21q23 11 47.5 17.5t54.5 6.5q58 0 96 -34t38 -96q0 -55 -40 -91.5t-116 -36.5q-94 0 -158 43.5t-111 111.5l21 15q49 -69 108.5 -106.5t138.5 -37.5q65 0 97.5 28t32.5 75q0 38 -15.5 60.5t-40.5 32.5t-51 10q-48 0 -93 -23z" />
    <glyph glyph-name="uuvowelsigndeva" unicode="&#x942;" 
d="M-43 -231q-23 -11 -47 -17.5t-55 -6.5q-58 0 -96 34t-38 96q0 55 39.5 91.5t116.5 36.5q68 0 115.5 -27.5t83.5 -71t67 -92.5l-23 -13q-38 61 -73.5 100.5t-76 58.5t-92.5 19q-65 0 -97.5 -28t-32.5 -75q0 -38 15.5 -60.5t40 -32.5t51.5 -10q25 0 47.5 6t45.5 17z" />
    <glyph glyph-name="rvocalicvowelsigndeva" unicode="&#x943;" 
d="M6 -223q-33 -17 -62 -24.5t-59 -7.5q-59 0 -98 33.5t-39 94.5q0 52 39 92.5t113 47.5l2 -25q-62 -7 -94.5 -39t-32.5 -76q0 -57 33 -79.5t76 -22.5q30 0 54.5 6.5t58.5 24.5z" />
    <glyph glyph-name="ecandravowelsigndeva" unicode="&#x945;" 
d="M57 870q-19 -80 -61 -122t-112 -42q-69 0 -112.5 43.5t-70.5 119.5l25 9q22 -69 60 -107.5t99 -38.5q59 0 93 35.5t54 110.5z" />
    <glyph glyph-name="eshortvowelsigndeva" unicode="&#x946;" 
d="M-128 615q-13 53 -24.5 87t-28 50t-45.5 16q-16 0 -30.5 -2t-30.5 -2q-30 0 -51.5 9t-38.5 36t-35 79l24 8q14 -42 25.5 -65t28 -32t46.5 -9q13 0 28.5 2t32.5 2q27 0 50 -11.5t41.5 -50t33.5 -117.5h-26z" />
    <glyph glyph-name="evowelsigndeva" unicode="&#x947;" 
d="M-128 615q-24 101 -48.5 156.5t-51.5 77t-61 21.5q-23 0 -44.5 -4.5t-36.5 -11.5l-10 26q18 7 39 11.5t51 4.5q52 0 85.5 -31.5t57 -94t45.5 -155.5h-26z" />
    <glyph glyph-name="aivowelsigndeva" unicode="&#x948;" 
d="M-129 615q-29 53 -56 80t-54 37t-57 10q-21 0 -42 -5.5t-41 -15.5l-9 26q20 8 42.5 14.5t49.5 6.5q51 0 88 -24t66 -73l3 2q-34 107 -66.5 152t-83.5 45q-24 0 -45 -4.5t-36 -11.5l-10 26q18 7 39 11.5t51 4.5q52 0 85.5 -31.5t57 -94t45.5 -155.5h-27z" />
    <glyph glyph-name="ocandravowelsigndeva" unicode="&#x949;" horiz-adv-x="225" 
d="M125 596v-596h-26v596h-99v26h240v-26h-115zM249 870q-19 -80 -61 -122t-112 -42q-69 0 -112.5 43.5t-70.5 119.5l25 9q22 -69 60 -107.5t99 -38.5q59 0 93 35.5t54 110.5z" />
    <glyph glyph-name="oshortvowelsigndeva" unicode="&#x94a;" horiz-adv-x="225" 
d="M125 596v-596h-26v596h-99v26h240v-26h-115zM97 615q-13 53 -24.5 87t-28 50t-45.5 16q-16 0 -30.5 -2t-30.5 -2q-30 0 -51.5 9t-38.5 36t-35 79l24 8q14 -42 25.5 -65t28 -32t46.5 -9q13 0 28.5 2t32.5 2q27 0 50 -11.5t41.5 -50t33.5 -117.5h-26z" />
    <glyph glyph-name="ovowelsigndeva" unicode="&#x94b;" horiz-adv-x="225" 
d="M125 596v-596h-26v596h-99v26h240v-26h-115zM97 615q-24 101 -48.5 156.5t-51.5 77t-61 21.5q-23 0 -44.5 -4.5t-36.5 -11.5l-10 26q18 7 39 11.5t51 4.5q52 0 85.5 -31.5t57 -94t45.5 -155.5h-26z" />
    <glyph glyph-name="auvowelsigndeva" unicode="&#x94c;" horiz-adv-x="225" 
d="M125 596v-596h-26v596h-99v26h240v-26h-115zM96 615q-29 53 -56 80t-54 37t-57 10q-21 0 -42 -5.5t-41 -15.5l-9 26q20 8 42.5 14.5t49.5 6.5q51 0 88 -24t66 -73l3 2q-34 107 -66.5 152t-83.5 45q-24 0 -45 -4.5t-36 -11.5l-10 26q18 7 39 11.5t51 4.5q52 0 85.5 -31.5
t57 -94t45.5 -155.5h-27z" />
    <glyph glyph-name="viramadeva" unicode="&#x94d;" 
d="M-137 -54q7 2 15 2.5t22 0.5q56 0 97 -23t75.5 -64.5t70.5 -97.5l-23 -13q-42 64 -75.5 101.5t-66.5 54t-75 16.5q-22 0 -37 -3z" />
    <glyph glyph-name="uni094E" unicode="&#x94e;" horiz-adv-x="236" 
d="M136 596v-596h-26v622h141v-26h-115z" />
    <glyph glyph-name="awvowelsigndeva" unicode="&#x94f;" horiz-adv-x="225" 
d="M125 596v-596h-26v596h-99v26h240v-26h-115zM88 615q-17 53 -34 73.5t-53 20.5q-16 0 -30.5 -2t-30.5 -2q-30 0 -51.5 9t-38.5 35t-34 77l24 8q13 -40 24.5 -62.5t28 -31.5t46.5 -9q13 0 28.5 2t32.5 2q41 0 66 -23.5t44 -89.5q7 17 11.5 33.5t4.5 35.5q0 52 -62 77
l-37 15q-36 15 -52.5 35t-16.5 63v6.5t1 7.5l26 1q-1 -4 -1 -8.5v-7.5q0 -32 9.5 -45.5t44.5 -28.5l32 -13q37 -16 59.5 -38.5t22.5 -59.5q0 -20 -5 -38.5t-15 -41.5h-44z" />
    <glyph glyph-name="omdeva" unicode="&#x950;" horiz-adv-x="786" 
d="M433 818q0 17 10 27.5t25 10.5q16 0 25.5 -11t9.5 -27q0 -19 -10.5 -28.5t-24.5 -9.5t-24.5 10t-10.5 28zM642 830q-20 -80 -61.5 -122t-111.5 -42q-68 0 -111.5 43.5t-71.5 119.5l25 9q23 -69 60 -107.5t99 -38.5q59 0 93.5 35.5t53.5 110.5zM405 219q0 -45 -18.5 -72
t-47.5 -39.5t-62 -12.5q-51 0 -93.5 26.5t-82 85t-78.5 154.5l26 9q49 -124 101 -186.5t123 -62.5q44 0 74.5 22.5t30.5 77.5q0 43 -25.5 80t-68.5 69q-28 -7 -61 -8l-2 26q80 4 117.5 32t37.5 81q0 51 -29.5 78t-83.5 27q-35 0 -66.5 -9.5t-66.5 -28.5l-10 26
q38 18 70.5 28t72.5 10q65 0 102.5 -35t37.5 -96q0 -43 -23.5 -75.5t-70.5 -48.5q16 -14 31.5 -20.5t41.5 -6.5q28 0 44.5 12.5t33.5 41.5l36 60q26 44 51.5 63.5t63.5 19.5q27 0 54 -15.5t45 -49.5t18 -92q0 -54 -18.5 -90.5t-49 -54.5t-65.5 -18q-48 0 -81 20.5t-67 54.5
l19 18q31 -34 60.5 -50.5t66.5 -16.5q45 0 76.5 34.5t31.5 101.5q0 63 -25.5 97.5t-65.5 34.5q-34 0 -53.5 -17.5t-47.5 -65.5l-33 -57q-14 -25 -35 -41t-53 -16q-15 0 -29 4q46 -48 46 -109z" />
    <glyph glyph-name="udattadeva" unicode="&#x951;" 
d="M-100 672h-26v200h26v-200z" />
    <glyph glyph-name="anudattadeva" unicode="&#x952;" 
d="M-394 -99h296v-26h-296v26z" />
    <glyph glyph-name="uni0953" unicode="&#x953;" 
d="M-103 683l-99 188h34l92 -188h-27z" />
    <glyph glyph-name="uni0954" unicode="&#x954;" 
d="M-22 871l-99 -188h-27l92 188h34z" />
    <glyph glyph-name="candralongevowelsigndeva" unicode="&#x955;" 
d="M32 885q-32 -122 -153 -122q-55 0 -93.5 29.5t-66.5 91.5l23 12q24 -57 56.5 -82t81.5 -25q51 0 81.5 25t45.5 82zM-250 711h263v-26h-263v26z" />
    <glyph glyph-name="uevowelsigndeva" unicode="&#x956;" 
d="M-277 -158q-62 0 -105.5 19.5t-67.5 42.5l8 24q33 -28 70.5 -44t94.5 -16t94.5 16t70.5 44l8 -24q-24 -23 -67.5 -42.5t-105.5 -19.5z" />
    <glyph glyph-name="uuevowelsigndeva" unicode="&#x957;" 
d="M-276 -131q-62 0 -105.5 19.5t-67.5 42.5l8 24q33 -29 70.5 -44.5t94.5 -15.5t94.5 15.5t70.5 44.5l8 -24q-24 -23 -67.5 -42.5t-105.5 -19.5zM-276 -250q-62 0 -105.5 19.5t-67.5 42.5l8 24q33 -28 70.5 -44t94.5 -16t94.5 16t70.5 44l8 -24q-24 -23 -67.5 -42.5
t-105.5 -19.5z" />
    <glyph glyph-name="qadeva" unicode="&#x958;" horiz-adv-x="677" 
d="M692 596h-314v-280q30 40 61 60.5t70 20.5q48 0 81.5 -34.5t33.5 -105.5q0 -59 -20 -108t-51 -95l-24 16q31 44 49.5 88.5t18.5 101.5q0 52 -23.5 81.5t-69.5 29.5q-29 0 -60 -20.5t-66 -75.5v-275h-26v240q-28 -34 -62.5 -57.5t-91.5 -23.5q-60 0 -102 38.5t-42 118.5
q0 76 47 117.5t123 41.5q53 0 91 -10l-5 -26q-31 10 -85 10q-66 0 -105 -34t-39 -99q0 -70 33 -100.5t87 -30.5q39 0 76.5 20t74.5 74v317h-352v26h692v-26zM121 28q0 18 8.5 28t22.5 10t22 -10.5t8 -27.5q0 -20 -8.5 -29t-21.5 -9q-12 0 -21.5 9.5t-9.5 28.5z" />
    <glyph glyph-name="khhadeva" unicode="&#x959;" horiz-adv-x="732" 
d="M632 596v-596h-26v60q-71 -42 -162 -42q-114 0 -201 62t-163 186q-16 25 -21.5 43.5t-5.5 31.5q0 18 11 27t25 9q21 0 36.5 -12.5t31.5 -39.5q35 21 51.5 57.5t16.5 85.5q0 31 -8.5 66.5t-22.5 61.5h-194v26h747v-26h-115zM484 211q42 0 72 14t50 34v337h-384
q12 -22 20.5 -57.5t8.5 -71.5q0 -77 -37 -124t-109 -72q72 -115 153 -171t182 -56q96 0 166 45v138q-20 -18 -51.5 -30t-71.5 -12t-73.5 17t-53.5 49.5t-20 80.5q0 51 22.5 84.5t59 50.5t78.5 17q21 0 40.5 -2.5t32.5 -5.5l-5 -26q-15 4 -31.5 6t-37.5 2q-58 0 -95 -32.5
t-37 -93.5q0 -62 35 -91.5t86 -29.5zM113 28q0 18 8.5 28t22.5 10t22 -10.5t8 -27.5q0 -20 -8.5 -29t-21.5 -9q-12 0 -21.5 9.5t-9.5 28.5z" />
    <glyph glyph-name="ghhadeva" unicode="&#x95a;" horiz-adv-x="504" 
d="M156 596v-312q0 -21 -8.5 -30t-19.5 -9q-16 0 -32.5 12t-27 29.5t-10.5 34.5q0 14 10 22.5t36 8.5h26v244h-130v26h519v-26h-115v-596h-26v596h-222zM113 28q0 18 8.5 28t22.5 10t22 -10.5t8 -27.5q0 -20 -8.5 -29t-21.5 -9q-12 0 -21.5 9.5t-9.5 28.5z" />
    <glyph glyph-name="zadeva" unicode="&#x95b;" horiz-adv-x="660" 
d="M560 596v-596h-26v415h-189q-36 0 -69 2q55 -41 87 -88t32 -109q0 -61 -35.5 -90t-81.5 -29q-48 0 -90.5 29t-83 96.5t-81.5 183.5l26 9q52 -151 106 -221.5t121 -70.5q45 0 68.5 24.5t23.5 70.5q0 62 -38 109.5t-96 87.5l11 22h289v155h-534v26h675v-26h-115zM223 -43
q0 18 8.5 28t22.5 10t22 -10.5t8 -27.5q0 -20 -8.5 -29t-21.5 -9q-12 0 -21.5 9.5t-9.5 28.5z" />
    <glyph glyph-name="dddhadeva" unicode="&#x95c;" horiz-adv-x="548" 
d="M348 251q-33 0 -63 -5.5t-59 -21.5q-33 22 -61.5 54t-28.5 81q0 36 18 60q16 21 43.5 33t85.5 12h129v132h-412v26h563v-26h-125v-158h-161q-75 0 -100 -32q-14 -17 -14 -50q0 -34 21.5 -61.5t44.5 -41.5q23 11 51 17.5t68 6.5q68 0 108.5 -37t40.5 -101
q0 -58 -43.5 -98.5t-133.5 -40.5q-98 0 -167 43t-123 109l22 16q57 -74 124.5 -108t142.5 -34q78 0 114.5 31.5t36.5 82.5q0 58 -36 84.5t-86 26.5zM251 -134q0 18 8.5 28t22.5 10t22 -10.5t8 -27.5q0 -20 -8.5 -29t-21.5 -9q-12 0 -21.5 9.5t-9.5 28.5z" />
    <glyph glyph-name="rhadeva" unicode="&#x95d;" horiz-adv-x="519" 
d="M284 0q-66 0 -118 27t-81.5 78t-29.5 124q0 67 32.5 114t90 72.5t131.5 25.5h21v155h-330v26h534v-26h-178v-181h-39q-59 0 -99 -11t-69 -34q-67 -53 -67 -142q0 -94 51 -145t128 -57q-31 56 -31 114q0 52 32 87.5t91 35.5q55 0 85 -33t30 -85q0 -63 -50 -104t-134 -41z
M257 139q0 -35 9 -62.5t24 -51.5q72 2 111.5 35.5t39.5 84.5q0 44 -22.5 68t-66.5 24q-46 0 -70.5 -27t-24.5 -71zM224 -134q0 18 8.5 28t22.5 10t22 -10.5t8 -27.5q0 -20 -8.5 -29t-21.5 -9q-12 0 -21.5 9.5t-9.5 28.5z" />
    <glyph glyph-name="fadeva" unicode="&#x95e;" horiz-adv-x="703" 
d="M404 596v-279q27 36 58 58t73 22q48 0 81.5 -34.5t33.5 -105.5q0 -59 -20 -108t-51 -95l-24 16q31 44 49.5 88.5t18.5 101.5q0 52 -23.5 81.5t-69.5 29.5q-30 0 -60 -20.5t-66 -73.5v-277h-26v250q-23 -26 -57.5 -45t-84.5 -19q-32 0 -58 9t-45 31q-20 23 -30.5 59.5
t-10.5 99.5v211h-92v26h718v-26h-314zM118 596v-201q0 -66 8.5 -98.5t23.5 -50.5q13 -15 33.5 -24.5t51.5 -9.5q41 0 75 16t68 58v310h-260zM133 28q0 18 8.5 28t22.5 10t22 -10.5t8 -27.5q0 -20 -8.5 -29t-21.5 -9q-12 0 -21.5 9.5t-9.5 28.5z" />
    <glyph glyph-name="yyadeva" unicode="&#x95f;" horiz-adv-x="525" 
d="M540 622v-26h-115v-596h-26v226q-25 -24 -63.5 -43.5t-87.5 -19.5q-81 0 -126 45t-76 141q64 15 91.5 45.5t27.5 82.5q0 36 -13.5 64.5t-37.5 54.5h-114v26h540zM81 330q23 -66 60 -103.5t107 -37.5q86 0 151 72v335h-252q19 -24 32 -54t13 -66q0 -60 -30 -94t-81 -52z
M150 28q0 18 8.5 28t22.5 10t22 -10.5t8 -27.5q0 -20 -8.5 -29t-21.5 -9q-12 0 -21.5 9.5t-9.5 28.5z" />
    <glyph glyph-name="rrvocalicdeva" unicode="&#x960;" horiz-adv-x="785" 
d="M105 101l-15 23l267 175q-43 58 -72.5 87t-56 39t-60.5 10q-33 0 -63 -8t-69 -26l-10 24q38 17 69.5 26.5t71.5 9.5q37 0 68.5 -12.5t63.5 -43t72 -85.5v276h-371v26h800v-26h-403v-271q45 1 88.5 7.5t77.5 15.5q-9 18 -9 39q0 17 10 29t30 12q23 0 37.5 -14t14.5 -35
q0 -20 -13 -31.5t-34 -16.5q13 -26 26 -47.5t27 -40.5l-8 -20q-50 -11 -71.5 -34t-21.5 -56q0 -47 32 -65t77 -18q30 0 54.5 6.5t58.5 24.5l9 -25q-33 -17 -62 -24.5t-59 -7.5q-31 0 -56 7q-9 -10 -13.5 -22t-4.5 -29q0 -46 32 -64.5t77 -18.5q30 0 54.5 6.5t58.5 24.5
l9 -25q-33 -17 -62 -24.5t-59 -7.5q-66 0 -101.5 29t-35.5 80q0 19 5 33t15 27q-56 28 -56 93q0 81 97 110q-13 18 -27 41.5t-21 40.5q-38 -11 -86.5 -18t-89.5 -8v-299h-26v280z" />
    <glyph glyph-name="llvocalicdeva" unicode="&#x961;" horiz-adv-x="630" 
d="M196 428q41 0 73 -15t62 -40q25 28 54 41.5t63 14.5v167h-448v26h645v-26h-171v-168q43 -5 72 -35.5t29 -93.5q0 -27 -4 -50t-10 -42q-82 -2 -117.5 -29t-35.5 -68q0 -46 32 -64.5t77 -18.5q30 0 54.5 6.5t58.5 24.5l9 -25q-33 -17 -62 -24.5t-59 -7.5q-32 0 -57 7
q-8 -10 -12.5 -22.5t-4.5 -28.5q0 -47 32 -65t77 -18q30 0 54.5 6.5t58.5 24.5l9 -25q-33 -17 -62 -24.5t-59 -7.5q-66 0 -101.5 29t-35.5 80q0 19 5 33t15 27q-56 28 -56 93q0 44 36.5 80t122.5 40q4 15 6 31.5t2 35.5q0 56 -25.5 81t-69.5 25q-33 0 -63.5 -15t-56 -53
t-46.5 -106l-26 8q22 72 54 116q-29 24 -55 36.5t-61 12.5q-56 0 -87.5 -33t-31.5 -85q0 -44 20 -83t65 -84t118 -108l-17 -19q-100 82 -156.5 150.5t-56.5 142.5q0 53 22 84.5t55.5 46t65.5 14.5z" />
    <glyph glyph-name="dandadeva" unicode="&#x964;" horiz-adv-x="335" 
d="M200 622h26v-622h-26v622z" />
    <glyph glyph-name="dbldandadeva" unicode="&#x965;" horiz-adv-x="527" 
d="M392 622h26v-622h-26v622zM200 622h26v-622h-26v622z" />
    <glyph glyph-name="zerodeva" unicode="&#x966;" horiz-adv-x="551" 
d="M275 135q-55 0 -97 23.5t-65.5 65.5t-23.5 96t24.5 96t66.5 66t96 24q55 0 97 -23.5t65.5 -65.5t23.5 -97q0 -54 -24 -95.5t-66.5 -65.5t-96.5 -24zM274 161q70 0 115.5 44.5t45.5 114.5q0 72 -43 116t-115 44q-71 0 -116 -44.5t-45 -115.5t43 -115t115 -44z" />
    <glyph glyph-name="onedeva" unicode="&#x967;" horiz-adv-x="551" 
d="M270 632q58 0 98.5 -32t40.5 -93q0 -40 -19 -76t-66 -76.5t-130 -94.5l149 -116q31 -25 49 -48t18 -62q0 -26 -12 -50.5t-30 -48.5l-22 16q17 19 27 40t10 41q0 28 -12.5 48t-47.5 48l-165 130l1 9q77 51 126.5 88.5t73 72t23.5 78.5q0 50 -32 75t-80 25q-50 0 -76.5 -23
t-26.5 -60q0 -35 23.5 -58.5t74.5 -41.5l-12 -23q-57 22 -85 50t-28 75q0 44 34.5 75.5t95.5 31.5z" />
    <glyph glyph-name="twodeva" unicode="&#x968;" horiz-adv-x="551" 
d="M465 2l-21 -15q-54 79 -107.5 143t-96.5 104q-24 -5 -49 -5q-39 0 -54.5 13t-15.5 28q0 17 11.5 24.5t28.5 7.5q23 0 43.5 -10t43.5 -28q62 17 104 66.5t42 120.5q0 77 -42 116t-106 39q-37 0 -72 -8t-77 -30l-10 26q40 19 77.5 28.5t80.5 9.5q44 0 84.5 -18.5t66 -58.5
t25.5 -105q0 -48 -20 -90t-54.5 -73t-79.5 -46q45 -42 94.5 -103t103.5 -136z" />
    <glyph glyph-name="threedeva" unicode="&#x969;" horiz-adv-x="551" 
d="M94 590q40 19 76.5 30.5t79.5 11.5q70 0 109.5 -34.5t39.5 -94.5q0 -85 -81 -119q56 -15 82 -50t26 -83q0 -55 -38.5 -95.5t-115.5 -54.5q34 -32 71.5 -74t67.5 -80l-20 -14q-41 52 -78 92t-71 71q-22 -2 -46 -2q-42 0 -57.5 13.5t-15.5 27.5q0 17 11 24.5t28 7.5
q45 0 93 -45q76 11 110 47t34 83t-29.5 78.5t-89.5 38.5q-15 -3 -34 -5.5t-51 -4.5l-1 26q70 1 108.5 16.5t54 42t15.5 59.5q0 49 -31.5 76t-90.5 27q-37 0 -71 -10t-75 -32z" />
    <glyph glyph-name="fourdeva" unicode="&#x96a;" horiz-adv-x="551" 
d="M412 122q0 -59 -39.5 -91.5t-101.5 -32.5q-61 0 -101 32.5t-40 95.5q0 27 9.5 53.5t36.5 60t79 81.5q-60 55 -96 93t-54 65.5t-23.5 49t-5.5 41.5q0 19 2 33t7 29l26 -6q-8 -26 -8 -56t13.5 -58.5t50.5 -68.5t106 -104q58 52 93 88t53 61t24 44t6 38q0 30 -8 56l26 6
q5 -15 7 -29t2 -33q0 -23 -7 -44.5t-26.5 -48.5t-56 -64.5t-95.5 -91.5q53 -51 79 -85t34 -60t8 -54zM157 126q0 -51 30.5 -76.5t83.5 -25.5q55 0 84.5 26t29.5 72q0 28 -8 52t-32.5 54t-71.5 76q-46 -43 -71 -73t-35 -54.5t-10 -50.5z" />
    <glyph glyph-name="fivedeva" unicode="&#x96b;" horiz-adv-x="551" 
d="M505 -67q-28 47 -55 100t-49 102.5t-36 87.5q-13 -2 -27.5 -3t-29.5 -1q-60 0 -108 21t-76 65.5t-28 115.5q0 53 18 109t47 102l25 -10q-28 -47 -45.5 -98.5t-17.5 -104.5q0 -81 46 -127.5t138 -46.5q10 0 22 0.5t26 2.5q-8 21 -8 39q0 21 11 33.5t32 12.5q22 0 38 -14.5
t16 -36.5t-15 -35t-40 -19q14 -37 36.5 -87.5t49.5 -102t54 -94.5z" />
    <glyph glyph-name="sixdeva" unicode="&#x96c;" horiz-adv-x="551" 
d="M481 -67l-52 95.5t-41 82.5q-16 -3 -33.5 -4t-35.5 -1q-63 0 -104.5 23t-62 59t-20.5 75q0 40 18.5 66.5t41.5 40.5q-39 21 -64.5 54.5t-25.5 76.5q0 67 45 99t113 32q31 0 58.5 -5t49.5 -11l-5 -26q-27 8 -51 12t-55 4q-59 0 -93.5 -25.5t-34.5 -78.5q0 -42 24 -70.5
t64 -47.5q17 6 38.5 10t50.5 4q14 0 29 -1t24 -3l-2 -26q-12 2 -26.5 3t-25.5 1q-75 0 -110.5 -30t-35.5 -80q0 -60 43.5 -95t116.5 -35q12 0 26.5 1t30.5 4q-4 9 -6 18.5t-2 16.5q0 20 11.5 33t32.5 13q22 0 37.5 -14.5t15.5 -36.5q0 -19 -14.5 -31.5t-37.5 -19.5
q15 -33 39 -79.5t53 -92.5z" />
    <glyph glyph-name="sevendeva" unicode="&#x96d;" horiz-adv-x="551" 
d="M497 272q0 -87 -24.5 -135.5t-62.5 -67.5t-79 -19q-81 0 -137.5 54.5t-93 172t-55.5 306.5l27 4q16 -165 46.5 -279t82.5 -173t131 -59q71 0 104.5 51t33.5 146q0 57 -16 111t-49 89t-85 35q-32 0 -49.5 -12t-24 -30t-6.5 -34q0 -28 15 -52t52.5 -39.5t103.5 -16.5
l-3 -25q-107 2 -151 40.5t-44 93.5q0 44 29 72.5t81 28.5q54 0 93 -37.5t60 -97t21 -127.5z" />
    <glyph glyph-name="eightdeva" unicode="&#x96e;" horiz-adv-x="551" 
d="M260 0q-46 0 -86.5 16.5t-65.5 52t-25 90.5q0 34 11 64t34 63t58 76l219 270l20 -17l-215 -264q-36 -45 -58 -77t-32 -58t-10 -57q0 -49 22 -78.5t56 -42t71 -12.5q57 0 109.5 17t107.5 51l9 -25q-41 -27 -98 -48t-127 -21z" />
    <glyph glyph-name="ninedeva" unicode="&#x96f;" horiz-adv-x="551" 
d="M90 479q0 41 18.5 76t53 56t80.5 21q63 0 107.5 -39t44.5 -113q0 -47 -20.5 -81t-55 -52t-77.5 -18q-18 0 -39 6q16 -10 33 -22t33 -25l177 -144q31 -26 49 -48.5t18 -61.5q0 -26 -12 -50.5t-30 -48.5l-22 16q17 19 27 40t10 41q0 28 -12.5 48t-47.5 48l-251 204
q-44 36 -64 69t-20 78zM117 480q0 -58 33 -91.5t91 -33.5q54 0 90 33t36 93q0 53 -32 89t-93 36q-56 0 -90.5 -35.5t-34.5 -90.5z" />
    <glyph glyph-name="abbreviationsigndeva" unicode="&#x970;" horiz-adv-x="357" 
d="M179 319q-49 0 -83 33t-34 87q0 49 32 84t85 35q49 0 82.5 -33.5t33.5 -85.5q0 -53 -33 -86.5t-83 -33.5zM179 345q40 0 65 25.5t25 68.5q0 41 -25 67t-65 26q-43 0 -67 -26t-24 -67q0 -43 25.5 -68.5t65.5 -25.5z" />
    <glyph glyph-name="uni0971" unicode="&#x971;" horiz-adv-x="251" 
d="M97 612q0 18 9.5 29t23.5 11q15 0 24 -11.5t9 -28.5q0 -20 -9.5 -30t-23.5 -10q-13 0 -23 10.5t-10 29.5z" />
    <glyph glyph-name="acandradeva" unicode="&#x972;" horiz-adv-x="670" 
d="M405 219q0 -45 -18.5 -72t-47.5 -39.5t-62 -12.5q-51 0 -93.5 26.5t-82 85t-78.5 154.5l26 9q49 -124 101 -186.5t123 -62.5q44 0 74.5 22.5t30.5 77.5q0 43 -25.5 80t-68.5 69q-28 -7 -61 -8l-2 26q80 4 117.5 32t37.5 81q0 51 -29.5 78t-83.5 27q-35 0 -66.5 -9.5
t-66.5 -28.5l-10 26q38 18 70.5 28t72.5 10q65 0 102.5 -35t37.5 -96q0 -42 -22.5 -73.5t-66.5 -48.5l16 -14t15 -15q26 -4 49.5 -5.5t43.5 -1.5q22 0 50 2.5t56 9.5v241h-82v26h223v-26h-115v-596h-26v329q-25 -7 -51 -9.5t-50 -2.5q-21 0 -41.5 1.5t-37.5 5.5
q19 -21 30 -47t11 -58zM694 870q-19 -80 -61 -122t-112 -42q-69 0 -112.5 43.5t-70.5 119.5l25 9q22 -69 60 -107.5t99 -38.5q59 0 93 35.5t54 110.5z" />
    <glyph glyph-name="oedeva" unicode="&#x973;" horiz-adv-x="670" 
d="M405 219q0 -45 -18.5 -72t-47.5 -39.5t-62 -12.5q-51 0 -93.5 26.5t-82 85t-78.5 154.5l26 9q49 -124 101 -186.5t123 -62.5q44 0 74.5 22.5t30.5 77.5q0 43 -25.5 80t-68.5 69q-28 -7 -61 -8l-2 26q80 4 117.5 32t37.5 81q0 51 -29.5 78t-83.5 27q-35 0 -66.5 -9.5
t-66.5 -28.5l-10 26q38 18 70.5 28t72.5 10q65 0 102.5 -35t37.5 -96q0 -42 -22.5 -73.5t-66.5 -48.5l16 -14t15 -15q26 -4 49.5 -5.5t43.5 -1.5q22 0 50 2.5t56 9.5v241h-82v26h223v-26h-115v-596h-26v329q-25 -7 -51 -9.5t-50 -2.5q-21 0 -41.5 1.5t-37.5 5.5
q19 -21 30 -47t11 -58zM544 615v190h26v-190h-26z" />
    <glyph glyph-name="ooedeva" unicode="&#x974;" horiz-adv-x="895" 
d="M405 219q0 -45 -18.5 -72t-47.5 -39.5t-62 -12.5q-51 0 -93.5 26.5t-82 85t-78.5 154.5l26 9q49 -124 101 -186.5t123 -62.5q44 0 74.5 22.5t30.5 77.5q0 43 -25.5 80t-68.5 69q-28 -7 -61 -8l-2 26q80 4 117.5 32t37.5 81q0 51 -29.5 78t-83.5 27q-35 0 -66.5 -9.5
t-66.5 -28.5l-10 26q38 18 70.5 28t72.5 10q65 0 102.5 -35t37.5 -96q0 -42 -22.5 -73.5t-66.5 -48.5l16 -14t15 -15q26 -4 49.5 -5.5t43.5 -1.5q22 0 50 2.5t56 9.5v241h-82v26h448v-26h-115v-596h-26v596h-199v-596h-26v329q-25 -7 -51 -9.5t-50 -2.5q-21 0 -41.5 1.5
t-37.5 5.5q19 -21 30 -47t11 -58zM769 615v190h26v-190h-26z" />
    <glyph glyph-name="awdeva" unicode="&#x975;" horiz-adv-x="895" 
d="M405 219q0 -45 -18.5 -72t-47.5 -39.5t-62 -12.5q-51 0 -93.5 26.5t-82 85t-78.5 154.5l26 9q49 -124 101 -186.5t123 -62.5q44 0 74.5 22.5t30.5 77.5q0 43 -25.5 80t-68.5 69q-28 -7 -61 -8l-2 26q80 4 117.5 32t37.5 81q0 51 -29.5 78t-83.5 27q-35 0 -66.5 -9.5
t-66.5 -28.5l-10 26q38 18 70.5 28t72.5 10q65 0 102.5 -35t37.5 -96q0 -42 -22.5 -73.5t-66.5 -48.5l16 -14t15 -15q26 -4 49.5 -5.5t43.5 -1.5q22 0 50 2.5t56 9.5v241h-82v26h448v-26h-115v-596h-26v596h-199v-596h-26v329q-25 -7 -51 -9.5t-50 -2.5q-21 0 -41.5 1.5
t-37.5 5.5q19 -21 30 -47t11 -58zM758 615q-17 53 -34 73.5t-53 20.5q-16 0 -30.5 -2t-30.5 -2q-30 0 -51.5 9t-38.5 35t-34 77l24 8q13 -40 24.5 -62.5t28 -31.5t46.5 -9q13 0 28.5 2t32.5 2q41 0 66 -23.5t44 -89.5q7 17 11.5 33.5t4.5 35.5q0 52 -62 77l-37 15
q-36 15 -52.5 35t-16.5 63v6.5t1 7.5l26 1q-1 -4 -1 -8.5v-7.5q0 -32 9.5 -45.5t44.5 -28.5l32 -13q37 -16 59.5 -38.5t22.5 -59.5q0 -20 -5 -38.5t-15 -41.5h-44z" />
    <glyph glyph-name="uedeva" unicode="&#x976;" horiz-adv-x="670" 
d="M405 219q0 -45 -18.5 -72t-47.5 -39.5t-62 -12.5q-51 0 -93.5 26.5t-82 85t-78.5 154.5l26 9q49 -124 101 -186.5t123 -62.5q44 0 74.5 22.5t30.5 77.5q0 43 -25.5 80t-68.5 69q-28 -7 -61 -8l-2 26q80 4 117.5 32t37.5 81q0 51 -29.5 78t-83.5 27q-35 0 -66.5 -9.5
t-66.5 -28.5l-10 26q38 18 70.5 28t72.5 10q65 0 102.5 -35t37.5 -96q0 -42 -22.5 -73.5t-66.5 -48.5l16 -14t15 -15q26 -4 49.5 -5.5t43.5 -1.5q22 0 50 2.5t56 9.5v241h-82v26h223v-26h-115v-596h-26v329q-25 -7 -51 -9.5t-50 -2.5q-21 0 -41.5 1.5t-37.5 5.5
q19 -21 30 -47t11 -58zM393 -158q-62 0 -105.5 19.5t-67.5 42.5l8 24q33 -28 70.5 -44t94.5 -16t94.5 16t70.5 44l8 -24q-24 -23 -67.5 -42.5t-105.5 -19.5z" />
    <glyph glyph-name="uuedeva" unicode="&#x977;" horiz-adv-x="670" 
d="M405 219q0 -45 -18.5 -72t-47.5 -39.5t-62 -12.5q-51 0 -93.5 26.5t-82 85t-78.5 154.5l26 9q49 -124 101 -186.5t123 -62.5q44 0 74.5 22.5t30.5 77.5q0 43 -25.5 80t-68.5 69q-28 -7 -61 -8l-2 26q80 4 117.5 32t37.5 81q0 51 -29.5 78t-83.5 27q-35 0 -66.5 -9.5
t-66.5 -28.5l-10 26q38 18 70.5 28t72.5 10q65 0 102.5 -35t37.5 -96q0 -42 -22.5 -73.5t-66.5 -48.5l16 -14t15 -15q26 -4 49.5 -5.5t43.5 -1.5q22 0 50 2.5t56 9.5v241h-82v26h223v-26h-115v-596h-26v329q-25 -7 -51 -9.5t-50 -2.5q-21 0 -41.5 1.5t-37.5 5.5
q19 -21 30 -47t11 -58zM394 -131q-62 0 -105.5 19.5t-67.5 42.5l8 24q33 -29 70.5 -44.5t94.5 -15.5t94.5 15.5t70.5 44.5l8 -24q-24 -23 -67.5 -42.5t-105.5 -19.5zM394 -250q-62 0 -105.5 19.5t-67.5 42.5l8 24q33 -28 70.5 -44t94.5 -16t94.5 16t70.5 44l8 -24
q-24 -23 -67.5 -42.5t-105.5 -19.5z" />
    <glyph glyph-name="marwariddadeva" unicode="&#x978;" horiz-adv-x="499" 
d="M153 596v-176q53 15 111 15q92 0 137 -51.5t45 -133.5q0 -62 -20 -111t-51 -96l-24 16q31 44 49.5 89t18.5 104q0 42 -14.5 77.5t-48.5 57.5t-92 22q-57 0 -111 -18v-63q0 -21 -8 -28t-19 -7q-15 0 -31.5 11.5t-27.5 27.5t-11 30q0 16 11.5 28t59.5 25v181h-127v26h514
v-26h-361z" />
    <glyph glyph-name="zhadeva" unicode="&#x979;" horiz-adv-x="660" 
d="M560 596v-596h-26v431h-189q-36 0 -68 2q54 -39 86 -84t32 -104q0 -58 -35.5 -85.5t-81.5 -27.5q-48 0 -90.5 27.5t-83 92t-81.5 174.5l26 9q51 -144 105.5 -210.5t121.5 -66.5q92 0 92 90q0 59 -38 104.5t-96 82.5l12 22h288v139h-534v26h675v-26h-115zM313 57
q0 17 8 26t19 9q12 0 19.5 -9.5t7.5 -25.5q0 -17 -8.5 -26t-18.5 -9t-18.5 9t-8.5 26zM151 57q0 17 8 26t19 9q12 0 19.5 -9.5t7.5 -25.5q0 -17 -8.5 -26t-18.5 -9t-18.5 9t-8.5 26zM232 -33q0 17 8 26t19 9q12 0 19.5 -9.5t7.5 -25.5q0 -17 -8 -26t-19 -9t-19 9t-8 26z" />
    <glyph glyph-name="heavyyadeva" unicode="&#x97a;" horiz-adv-x="525" 
d="M425 596v-596h-26v225q-25 -23 -62.5 -42.5t-88.5 -19.5q-81 0 -126 45t-76 141q64 15 91.5 45.5t27.5 82.5q0 36 -13.5 64.5t-37.5 54.5h-114v26h540v-26h-115zM399 596h-252q13 -16 23 -34.5t15 -40.5l214 -261v336zM243 412l-31 37.5t-21 27.5q-1 -62 -31 -96t-79 -51
q23 -68 60.5 -104.5t107.5 -36.5q75 0 133 54z" />
    <glyph glyph-name="gabardeva" unicode="&#x97b;" horiz-adv-x="504" 
d="M88 26h290v570h-222v-302q0 -21 -8.5 -30t-19.5 -9q-16 0 -32.5 12t-27 29.5t-10.5 34.5q0 14 10 22.5t36 8.5h26v234h-130v26h519v-26h-115v-596h-316v26z" />
    <glyph glyph-name="jabardeva" unicode="&#x97c;" horiz-adv-x="650" 
d="M88 26h436v405h-179q-36 0 -68 2q54 -39 86 -84t32 -104q0 -58 -35.5 -85.5t-81.5 -27.5q-48 0 -90.5 27.5t-83 92t-81.5 174.5l26 9q51 -144 105.5 -210.5t121.5 -66.5q92 0 92 90q0 59 -38 104.5t-96 82.5l12 22h278v139h-524v26h665v-26h-115v-596h-462v26z" />
    <glyph glyph-name="uni097D" unicode="&#x97d;" horiz-adv-x="414" 
d="M199 632q75 0 120.5 -44.5t45.5 -118.5q0 -67 -38.5 -113t-115.5 -56v-300h-26v324q79 3 116 45t37 103q0 63 -39 99t-102 36q-39 0 -69 -9.5t-59 -23.5l-8 25q30 13 63.5 23t74.5 10z" />
    <glyph glyph-name="ddabardeva" unicode="&#x97e;" horiz-adv-x="548" 
d="M346 283q-32 0 -64 -5.5t-61 -21.5q-31 20 -58 51t-27 74q0 35 18 57q16 20 43.5 31t85.5 11h129v116h-412v26h563v-26h-125v-142h-161q-56 0 -85 -16t-29 -60q0 -30 20 -55.5t41 -37.5q25 11 54.5 17.5t67.5 6.5q68 0 109.5 -32.5t41.5 -91.5q0 -55 -44 -90t-132 -35
q-99 0 -168 39t-123 101l22 16q50 -60 116 -95t151 -35q77 0 114 26t37 73q0 37 -17.5 58t-46 30.5t-60.5 9.5zM68 26h424v-26h-424v26z" />
    <glyph glyph-name="babardeva" unicode="&#x97f;" horiz-adv-x="504" 
d="M88 26h290v209q-25 -25 -65 -46t-99 -21q-70 0 -115 38.5t-45 115.5q0 78 49.5 120t135.5 42q35 0 59.5 -3t41.5 -7l-5 -26q-17 5 -39.5 7.5t-59.5 2.5q-51 0 -85 -16l180 -213q25 17 47 41v326h-378v26h519v-26h-115v-596h-316v26zM81 322q0 -68 37.5 -98t97.5 -30
q49 0 94 23l-182 213q-47 -35 -47 -108z" />
    <glyph glyph-name="uni200C" unicode="&#x200c;" 
d="M-26 788h52v-954h-52v954z" />
    <glyph glyph-name="uni200D" unicode="&#x200d;" 
d="M146 539l-37 -36l-83 82v-750h-52v750l-83 -82l-37 36l110 107l-110 106l37 36l109 -108l109 108l37 -37l-110 -105z" />
    <glyph glyph-name="uni25CC" unicode="&#x25cc;" horiz-adv-x="510" 
d="M254 457q-28 0 -28 29q0 28 28 28q30 0 30 -28q0 -29 -30 -29zM384 407q-29 0 -29 29t29 29t29 -29t-29 -29zM125 407q-28 0 -28 29t28 29q29 0 29 -29t-29 -29zM81 283q-29 0 -29 29q0 28 29 28q28 0 28 -28q0 -29 -28 -29zM429 283q-29 0 -29 29q0 28 29 28t29 -28
q0 -29 -29 -29zM125 158q-28 0 -28 29t28 29q29 0 29 -29t-29 -29zM384 158q-29 0 -29 29t29 29t29 -29t-29 -29zM254 108q-28 0 -28 29t28 29q30 0 30 -29t-30 -29z" />
    <glyph glyph-name="uni02BC" unicode="&#x2bc;" horiz-adv-x="251" 
d="M166 729l3 -12q-11 -55 -27.5 -118t-37.5 -115h-22q22 73 35 130.5t21 114.5h28z" />
    <glyph glyph-name="ashortnuktadeva" horiz-adv-x="670" 
d="M405 219q0 -45 -18.5 -72t-47.5 -39.5t-62 -12.5q-51 0 -93.5 26.5t-82 85t-78.5 154.5l26 9q49 -124 101 -186.5t123 -62.5q44 0 74.5 22.5t30.5 77.5q0 43 -25.5 80t-68.5 69q-28 -7 -61 -8l-2 26q80 4 117.5 32t37.5 81q0 51 -29.5 78t-83.5 27q-35 0 -66.5 -9.5
t-66.5 -28.5l-10 26q38 18 70.5 28t72.5 10q65 0 102.5 -35t37.5 -96q0 -42 -22.5 -73.5t-66.5 -48.5l16 -14t15 -15q26 -4 49.5 -5.5t43.5 -1.5q22 0 50 2.5t56 9.5v241h-82v26h223v-26h-115v-596h-26v329q-25 -7 -51 -9.5t-50 -2.5q-21 0 -41.5 1.5t-37.5 5.5
q19 -21 30 -47t11 -58zM542 615q-13 53 -24.5 87t-28 50t-45.5 16q-16 0 -30.5 -2t-30.5 -2q-30 0 -51.5 9t-38.5 36t-35 79l24 8q14 -42 25.5 -65t28 -32t46.5 -9q13 0 28.5 2t32.5 2q27 0 50 -11.5t41.5 -50t33.5 -117.5h-26zM223 -30q0 18 8.5 28t22.5 10t22 -10.5
t8 -27.5q0 -20 -8.5 -29t-21.5 -9q-12 0 -21.5 9.5t-9.5 28.5z" />
    <glyph glyph-name="anuktadeva" horiz-adv-x="670" 
d="M405 219q0 -45 -18.5 -72t-47.5 -39.5t-62 -12.5q-51 0 -93.5 26.5t-82 85t-78.5 154.5l26 9q49 -124 101 -186.5t123 -62.5q44 0 74.5 22.5t30.5 77.5q0 43 -25.5 80t-68.5 69q-28 -7 -61 -8l-2 26q80 4 117.5 32t37.5 81q0 51 -29.5 78t-83.5 27q-35 0 -66.5 -9.5
t-66.5 -28.5l-10 26q38 18 70.5 28t72.5 10q65 0 102.5 -35t37.5 -96q0 -42 -22.5 -73.5t-66.5 -48.5l16 -14t15 -15q26 -4 49.5 -5.5t43.5 -1.5q22 0 50 2.5t56 9.5v241h-82v26h223v-26h-115v-596h-26v329q-25 -7 -51 -9.5t-50 -2.5q-21 0 -41.5 1.5t-37.5 5.5
q19 -21 30 -47t11 -58zM223 -30q0 18 8.5 28t22.5 10t22 -10.5t8 -27.5q0 -20 -8.5 -29t-21.5 -9q-12 0 -21.5 9.5t-9.5 28.5z" />
    <glyph glyph-name="aanuktadeva" horiz-adv-x="895" 
d="M405 219q0 -45 -18.5 -72t-47.5 -39.5t-62 -12.5q-51 0 -93.5 26.5t-82 85t-78.5 154.5l26 9q49 -124 101 -186.5t123 -62.5q44 0 74.5 22.5t30.5 77.5q0 43 -25.5 80t-68.5 69q-28 -7 -61 -8l-2 26q80 4 117.5 32t37.5 81q0 51 -29.5 78t-83.5 27q-35 0 -66.5 -9.5
t-66.5 -28.5l-10 26q38 18 70.5 28t72.5 10q65 0 102.5 -35t37.5 -96q0 -42 -22.5 -73.5t-66.5 -48.5l16 -14t15 -15q26 -4 49.5 -5.5t43.5 -1.5q22 0 50 2.5t56 9.5v241h-82v26h448v-26h-115v-596h-26v596h-199v-596h-26v329q-25 -7 -51 -9.5t-50 -2.5q-21 0 -41.5 1.5
t-37.5 5.5q19 -21 30 -47t11 -58zM223 -30q0 18 8.5 28t22.5 10t22 -10.5t8 -27.5q0 -20 -8.5 -29t-21.5 -9q-12 0 -21.5 9.5t-9.5 28.5z" />
    <glyph glyph-name="inuktadeva" horiz-adv-x="472" 
d="M270 251q-32 0 -61.5 -5.5t-58.5 -21.5q-33 22 -61.5 53.5t-28.5 78.5q0 21 4.5 35t13.5 27q16 22 44 34t88 12h130v132h-340v26h487v-26h-121v-158h-162q-43 0 -66.5 -7.5t-36.5 -25.5q-14 -17 -14 -52q0 -33 21.5 -59.5t44.5 -40.5q23 11 51 17.5t68 6.5q65 0 107 -36
t42 -100q0 -73 -52.5 -107t-132.5 -34q-9 0 -24 1q37 -21 79 -42.5t87 -41.5l-11 -24q-52 26 -102.5 54t-92.5 56q-29 2 -54.5 6.5t-41.5 14.5t-16 27q0 12 7.5 20t25.5 8q19 0 41 -14t43 -37q26 -4 56 -4q161 0 161 117q0 40 -17.5 64t-46 35t-60.5 11zM159 -134
q0 18 8.5 28t22.5 10t22 -10.5t8 -27.5q0 -20 -8.5 -29t-21.5 -9q-12 0 -21.5 9.5t-9.5 28.5z" />
    <glyph glyph-name="iinuktadeva" horiz-adv-x="472" 
d="M270 251q-32 0 -61.5 -5.5t-58.5 -21.5q-33 22 -61.5 53.5t-28.5 78.5q0 21 4.5 35t13.5 27q16 22 44 34t88 12h130v132h-340v26h487v-26h-121v-158h-162q-43 0 -66.5 -7.5t-36.5 -25.5q-14 -17 -14 -52q0 -33 21.5 -59.5t44.5 -40.5q23 11 51 17.5t68 6.5q65 0 107 -36
t42 -100q0 -73 -52.5 -107t-132.5 -34q-9 0 -24 1q37 -21 79 -42.5t87 -41.5l-11 -24q-52 26 -102.5 54t-92.5 56q-29 2 -54.5 6.5t-41.5 14.5t-16 27q0 12 7.5 20t25.5 8q19 0 41 -14t43 -37q26 -4 56 -4q161 0 161 117q0 40 -17.5 64t-46 35t-60.5 11zM330 615
q-28 41 -46 78t-18 80q0 59 36.5 91t88.5 32q33 0 57 -7t45 -17l-10 -25q-23 13 -43 18t-45 5q-52 0 -77.5 -28t-25.5 -72q0 -36 17 -71t51 -84h-30zM159 -134q0 18 8.5 28t22.5 10t22 -10.5t8 -27.5q0 -20 -8.5 -29t-21.5 -9q-12 0 -21.5 9.5t-9.5 28.5z" />
    <glyph glyph-name="unuktadeva" horiz-adv-x="494" 
d="M0 622h509v-26h-157q62 -45 62 -118q0 -46 -24 -82.5t-78 -54.5q53 -40 87.5 -89t34.5 -115q0 -67 -38.5 -102t-101.5 -35q-53 0 -96.5 30t-85.5 99t-89 187l26 9q41 -105 78 -171t77 -97t88 -31q30 0 56 10t42.5 34.5t16.5 69.5q0 103 -125 193q-21 -4 -46 -5l-2 26
q82 3 117.5 36.5t35.5 85.5q0 38 -19.5 68.5t-54.5 51.5h-313v26zM218 -134q0 18 8.5 28t22.5 10t22 -10.5t8 -27.5q0 -20 -8.5 -29t-21.5 -9q-12 0 -21.5 9.5t-9.5 28.5z" />
    <glyph glyph-name="uunuktadeva" horiz-adv-x="687" 
d="M0 622h702v-26h-350q62 -45 62 -118q0 -46 -24 -82.5t-78 -54.5q23 -17 43 -36t36 -40q29 32 59 49.5t67 17.5q49 0 84 -33.5t35 -102.5q0 -56 -20 -103.5t-51 -92.5l-24 16q31 43 49.5 85t18.5 98q0 51 -24.5 79t-68.5 28q-35 0 -61 -17.5t-49 -46.5q13 -23 20.5 -49
t7.5 -56q0 -67 -38.5 -102t-101.5 -35q-53 0 -96.5 30t-85.5 99t-89 187l26 9q41 -105 78 -171t77 -97t88 -31q30 0 56 10t42.5 34.5t16.5 69.5q0 103 -125 193q-21 -4 -46 -5l-2 26q82 3 117.5 36.5t35.5 85.5q0 41 -20 71t-52 49h-315v26zM218 -134q0 18 8.5 28t22.5 10
t22 -10.5t8 -27.5q0 -20 -8.5 -29t-21.5 -9q-12 0 -21.5 9.5t-9.5 28.5z" />
    <glyph glyph-name="rvocalicnuktadeva" horiz-adv-x="785" 
d="M105 101l-15 23l267 175q-43 58 -72.5 87t-56 39t-60.5 10q-33 0 -63 -8t-69 -26l-10 24q38 17 69.5 26.5t71.5 9.5q37 0 68.5 -12.5t63.5 -43t72 -85.5v276h-371v26h800v-26h-403v-271q45 1 88.5 7.5t77.5 15.5q-9 18 -9 39q0 17 10 29t30 12q23 0 37.5 -14t14.5 -35
q0 -20 -13 -31.5t-34 -16.5q13 -26 26 -47.5t27 -40.5l-8 -20q-44 -13 -68.5 -41t-24.5 -68q0 -57 33 -79.5t76 -22.5q30 0 54.5 6.5t58.5 24.5l9 -25q-33 -17 -62 -24.5t-59 -7.5q-59 0 -98 33.5t-39 94.5q0 42 25 76.5t72 51.5l-26.5 42.5t-21.5 40.5q-38 -11 -86.5 -18
t-89.5 -8v-299h-26v280zM195 -69q0 18 8.5 28t22.5 10t22 -10.5t8 -27.5q0 -20 -8.5 -29t-21.5 -9q-12 0 -21.5 9.5t-9.5 28.5z" />
    <glyph glyph-name="lvocalicnuktadeva" horiz-adv-x="630" 
d="M380 33q0 49 35 88t101 50q14 25 23 56t9 70q0 56 -25.5 81t-69.5 25q-33 0 -63.5 -15t-56 -53t-46.5 -106l-26 8q22 72 54 116q-29 24 -55 36.5t-61 12.5q-56 0 -87.5 -33t-31.5 -85q0 -44 20 -83t65 -84t118 -108l-17 -19q-100 82 -156.5 150.5t-56.5 142.5
q0 53 22 84.5t55.5 46t65.5 14.5q41 0 73 -15t62 -40q25 28 54 41.5t63 14.5v167h-448v26h645v-26h-171v-168q43 -5 72 -35.5t29 -93.5q0 -52 -13.5 -89.5t-27.5 -61.5q-62 -7 -94.5 -39t-32.5 -76q0 -57 33 -79.5t76 -22.5q30 0 54.5 6.5t58.5 24.5l9 -25
q-33 -17 -62 -24.5t-59 -7.5q-59 0 -98 33.5t-39 94.5zM202 -124q0 18 8.5 28t22.5 10t22 -10.5t8 -27.5q0 -20 -8.5 -29t-21.5 -9q-12 0 -21.5 9.5t-9.5 28.5z" />
    <glyph glyph-name="ecandranuktadeva" horiz-adv-x="503" 
d="M518 596h-106v-242q0 -44 -4.5 -67.5t-19.5 -43.5q-14 -19 -39.5 -32t-55.5 -20l-6 26q21 5 40 12.5t32 20.5q16 14 21.5 34.5t5.5 67.5v244h-270v-266q0 -44 4 -71.5t14.5 -46t29.5 -33.5t49 -34l81 -50q49 -31 77.5 -52.5t40.5 -43.5t12 -51q0 -33 -12 -60t-33 -57
l-23 14q16 23 28.5 47.5t12.5 52.5q0 34 -24.5 61.5t-92.5 67.5l-92 56q-20 11 -46 33.5t-37 51.5q-7 17 -11 39t-4 68v274h-90v26h518v-26zM480 870q-19 -80 -61 -122t-112 -42q-69 0 -112.5 43.5t-70.5 119.5l25 9q22 -69 60 -107.5t99 -38.5q59 0 93 35.5t54 110.5z
M131 -59q0 18 8.5 28t22.5 10t22 -10.5t8 -27.5q0 -20 -8.5 -29t-21.5 -9q-12 0 -21.5 9.5t-9.5 28.5z" />
    <glyph glyph-name="eshortnuktadeva" horiz-adv-x="503" 
d="M518 596h-106v-242q0 -44 -4.5 -67.5t-19.5 -43.5q-14 -19 -39.5 -32t-55.5 -20l-6 26q21 5 40 12.5t32 20.5q16 14 21.5 34.5t5.5 67.5v244h-270v-266q0 -44 4 -71.5t14.5 -46t29.5 -33.5t49 -34l81 -50q49 -31 77.5 -52.5t40.5 -43.5t12 -51q0 -33 -12 -60t-33 -57
l-23 14q16 23 28.5 47.5t12.5 52.5q0 34 -24.5 61.5t-92.5 67.5l-92 56q-20 11 -46 33.5t-37 51.5q-7 17 -11 39t-4 68v274h-90v26h518v-26zM384 615q-13 53 -24.5 87t-28 50t-45.5 16q-16 0 -30.5 -2t-30.5 -2q-30 0 -51.5 9t-38.5 36t-35 79l24 8q14 -42 25.5 -65t28 -32
t46.5 -9q13 0 28.5 2t32.5 2q27 0 50 -11.5t41.5 -50t33.5 -117.5h-26zM131 -59q0 18 8.5 28t22.5 10t22 -10.5t8 -27.5q0 -20 -8.5 -29t-21.5 -9q-12 0 -21.5 9.5t-9.5 28.5z" />
    <glyph glyph-name="enuktadeva" horiz-adv-x="503" 
d="M518 596h-106v-242q0 -44 -4.5 -67.5t-19.5 -43.5q-14 -19 -39.5 -32t-55.5 -20l-6 26q21 5 40 12.5t32 20.5q16 14 21.5 34.5t5.5 67.5v244h-270v-266q0 -44 4 -71.5t14.5 -46t29.5 -33.5t49 -34l81 -50q49 -31 77.5 -52.5t40.5 -43.5t12 -51q0 -33 -12 -60t-33 -57
l-23 14q16 23 28.5 47.5t12.5 52.5q0 34 -24.5 61.5t-92.5 67.5l-92 56q-20 11 -46 33.5t-37 51.5q-7 17 -11 39t-4 68v274h-90v26h518v-26zM131 -59q0 18 8.5 28t22.5 10t22 -10.5t8 -27.5q0 -20 -8.5 -29t-21.5 -9q-12 0 -21.5 9.5t-9.5 28.5z" />
    <glyph glyph-name="ainuktadeva" horiz-adv-x="503" 
d="M518 596h-106v-242q0 -44 -4.5 -67.5t-19.5 -43.5q-14 -19 -39.5 -32t-55.5 -20l-6 26q21 5 40 12.5t32 20.5q16 14 21.5 34.5t5.5 67.5v244h-270v-266q0 -44 4 -71.5t14.5 -46t29.5 -33.5t49 -34l81 -50q49 -31 77.5 -52.5t40.5 -43.5t12 -51q0 -33 -12 -60t-33 -57
l-23 14q16 23 28.5 47.5t12.5 52.5q0 34 -24.5 61.5t-92.5 67.5l-92 56q-20 11 -46 33.5t-37 51.5q-7 17 -11 39t-4 68v274h-90v26h518v-26zM384 615q-24 101 -48.5 156.5t-51.5 77t-61 21.5q-23 0 -44.5 -4.5t-36.5 -11.5l-10 26q18 7 39 11.5t51 4.5q52 0 85.5 -31.5
t57 -94t45.5 -155.5h-26zM131 -59q0 18 8.5 28t22.5 10t22 -10.5t8 -27.5q0 -20 -8.5 -29t-21.5 -9q-12 0 -21.5 9.5t-9.5 28.5z" />
    <glyph glyph-name="ocandranuktadeva" horiz-adv-x="895" 
d="M405 219q0 -45 -18.5 -72t-47.5 -39.5t-62 -12.5q-51 0 -93.5 26.5t-82 85t-78.5 154.5l26 9q49 -124 101 -186.5t123 -62.5q44 0 74.5 22.5t30.5 77.5q0 43 -25.5 80t-68.5 69q-28 -7 -61 -8l-2 26q80 4 117.5 32t37.5 81q0 51 -29.5 78t-83.5 27q-35 0 -66.5 -9.5
t-66.5 -28.5l-10 26q38 18 70.5 28t72.5 10q65 0 102.5 -35t37.5 -96q0 -42 -22.5 -73.5t-66.5 -48.5l16 -14t15 -15q26 -4 49.5 -5.5t43.5 -1.5q22 0 50 2.5t56 9.5v241h-82v26h448v-26h-115v-596h-26v596h-199v-596h-26v329q-25 -7 -51 -9.5t-50 -2.5q-21 0 -41.5 1.5
t-37.5 5.5q19 -21 30 -47t11 -58zM223 -30q0 18 8.5 28t22.5 10t22 -10.5t8 -27.5q0 -20 -8.5 -29t-21.5 -9q-12 0 -21.5 9.5t-9.5 28.5zM919 870q-19 -80 -61 -122t-112 -42q-69 0 -112.5 43.5t-70.5 119.5l25 9q22 -69 60 -107.5t99 -38.5q59 0 93 35.5t54 110.5z" />
    <glyph glyph-name="oshortnuktadeva" horiz-adv-x="895" 
d="M405 219q0 -45 -18.5 -72t-47.5 -39.5t-62 -12.5q-51 0 -93.5 26.5t-82 85t-78.5 154.5l26 9q49 -124 101 -186.5t123 -62.5q44 0 74.5 22.5t30.5 77.5q0 43 -25.5 80t-68.5 69q-28 -7 -61 -8l-2 26q80 4 117.5 32t37.5 81q0 51 -29.5 78t-83.5 27q-35 0 -66.5 -9.5
t-66.5 -28.5l-10 26q38 18 70.5 28t72.5 10q65 0 102.5 -35t37.5 -96q0 -42 -22.5 -73.5t-66.5 -48.5l16 -14t15 -15q26 -4 49.5 -5.5t43.5 -1.5q22 0 50 2.5t56 9.5v241h-82v26h448v-26h-115v-596h-26v596h-199v-596h-26v329q-25 -7 -51 -9.5t-50 -2.5q-21 0 -41.5 1.5
t-37.5 5.5q19 -21 30 -47t11 -58zM767 615q-13 53 -24.5 87t-28 50t-45.5 16q-16 0 -30.5 -2t-30.5 -2q-30 0 -51.5 9t-38.5 36t-35 79l24 8q14 -42 25.5 -65t28 -32t46.5 -9q13 0 28.5 2t32.5 2q27 0 50 -11.5t41.5 -50t33.5 -117.5h-26zM223 -30q0 18 8.5 28t22.5 10
t22 -10.5t8 -27.5q0 -20 -8.5 -29t-21.5 -9q-12 0 -21.5 9.5t-9.5 28.5z" />
    <glyph glyph-name="onuktadeva" horiz-adv-x="895" 
d="M405 219q0 -45 -18.5 -72t-47.5 -39.5t-62 -12.5q-51 0 -93.5 26.5t-82 85t-78.5 154.5l26 9q49 -124 101 -186.5t123 -62.5q44 0 74.5 22.5t30.5 77.5q0 43 -25.5 80t-68.5 69q-28 -7 -61 -8l-2 26q80 4 117.5 32t37.5 81q0 51 -29.5 78t-83.5 27q-35 0 -66.5 -9.5
t-66.5 -28.5l-10 26q38 18 70.5 28t72.5 10q65 0 102.5 -35t37.5 -96q0 -42 -22.5 -73.5t-66.5 -48.5l16 -14t15 -15q26 -4 49.5 -5.5t43.5 -1.5q22 0 50 2.5t56 9.5v241h-82v26h448v-26h-115v-596h-26v596h-199v-596h-26v329q-25 -7 -51 -9.5t-50 -2.5q-21 0 -41.5 1.5
t-37.5 5.5q19 -21 30 -47t11 -58zM767 615q-24 101 -48.5 156.5t-51.5 77t-61 21.5q-23 0 -44.5 -4.5t-36.5 -11.5l-10 26q18 7 39 11.5t51 4.5q52 0 85.5 -31.5t57 -94t45.5 -155.5h-26zM223 -30q0 18 8.5 28t22.5 10t22 -10.5t8 -27.5q0 -20 -8.5 -29t-21.5 -9
q-12 0 -21.5 9.5t-9.5 28.5z" />
    <glyph glyph-name="aunuktadeva" horiz-adv-x="895" 
d="M405 219q0 -45 -18.5 -72t-47.5 -39.5t-62 -12.5q-51 0 -93.5 26.5t-82 85t-78.5 154.5l26 9q49 -124 101 -186.5t123 -62.5q44 0 74.5 22.5t30.5 77.5q0 43 -25.5 80t-68.5 69q-28 -7 -61 -8l-2 26q80 4 117.5 32t37.5 81q0 51 -29.5 78t-83.5 27q-35 0 -66.5 -9.5
t-66.5 -28.5l-10 26q38 18 70.5 28t72.5 10q65 0 102.5 -35t37.5 -96q0 -42 -22.5 -73.5t-66.5 -48.5l16 -14t15 -15q26 -4 49.5 -5.5t43.5 -1.5q22 0 50 2.5t56 9.5v241h-82v26h448v-26h-115v-596h-26v596h-199v-596h-26v329q-25 -7 -51 -9.5t-50 -2.5q-21 0 -41.5 1.5
t-37.5 5.5q19 -21 30 -47t11 -58zM766 615q-29 53 -56 80t-54 37t-57 10q-21 0 -42 -5.5t-41 -15.5l-9 26q20 8 42.5 14.5t49.5 6.5q51 0 88 -24t66 -73l3 2q-34 107 -66.5 152t-83.5 45q-24 0 -45 -4.5t-36 -11.5l-10 26q18 7 39 11.5t51 4.5q52 0 85.5 -31.5t57 -94
t45.5 -155.5h-27zM223 -30q0 18 8.5 28t22.5 10t22 -10.5t8 -27.5q0 -20 -8.5 -29t-21.5 -9q-12 0 -21.5 9.5t-9.5 28.5z" />
    <glyph glyph-name="rrvocalicnuktadeva" horiz-adv-x="785" 
d="M105 101l-15 23l267 175q-43 58 -72.5 87t-56 39t-60.5 10q-33 0 -63 -8t-69 -26l-10 24q38 17 69.5 26.5t71.5 9.5q37 0 68.5 -12.5t63.5 -43t72 -85.5v276h-371v26h800v-26h-403v-271q45 1 88.5 7.5t77.5 15.5q-9 18 -9 39q0 17 10 29t30 12q23 0 37.5 -14t14.5 -35
q0 -20 -13 -31.5t-34 -16.5q13 -26 26 -47.5t27 -40.5l-8 -20q-50 -11 -71.5 -34t-21.5 -56q0 -47 32 -65t77 -18q30 0 54.5 6.5t58.5 24.5l9 -25q-33 -17 -62 -24.5t-59 -7.5q-31 0 -56 7q-9 -10 -13.5 -22t-4.5 -29q0 -46 32 -64.5t77 -18.5q30 0 54.5 6.5t58.5 24.5
l9 -25q-33 -17 -62 -24.5t-59 -7.5q-66 0 -101.5 29t-35.5 80q0 19 5 33t15 27q-56 28 -56 93q0 81 97 110q-13 18 -27 41.5t-21 40.5q-38 -11 -86.5 -18t-89.5 -8v-299h-26v280zM195 -69q0 18 8.5 28t22.5 10t22 -10.5t8 -27.5q0 -20 -8.5 -29t-21.5 -9q-12 0 -21.5 9.5
t-9.5 28.5z" />
    <glyph glyph-name="llvocalicnuktadeva" horiz-adv-x="630" 
d="M196 428q41 0 73 -15t62 -40q25 28 54 41.5t63 14.5v167h-448v26h645v-26h-171v-168q43 -5 72 -35.5t29 -93.5q0 -27 -4 -50t-10 -42q-82 -2 -117.5 -29t-35.5 -68q0 -46 32 -64.5t77 -18.5q30 0 54.5 6.5t58.5 24.5l9 -25q-33 -17 -62 -24.5t-59 -7.5q-32 0 -57 7
q-8 -10 -12.5 -22.5t-4.5 -28.5q0 -47 32 -65t77 -18q30 0 54.5 6.5t58.5 24.5l9 -25q-33 -17 -62 -24.5t-59 -7.5q-66 0 -101.5 29t-35.5 80q0 19 5 33t15 27q-56 28 -56 93q0 44 36.5 80t122.5 40q4 15 6 31.5t2 35.5q0 56 -25.5 81t-69.5 25q-33 0 -63.5 -15t-56 -53
t-46.5 -106l-26 8q22 72 54 116q-29 24 -55 36.5t-61 12.5q-56 0 -87.5 -33t-31.5 -85q0 -44 20 -83t65 -84t118 -108l-17 -19q-100 82 -156.5 150.5t-56.5 142.5q0 53 22 84.5t55.5 46t65.5 14.5zM202 -124q0 18 8.5 28t22.5 10t22 -10.5t8 -27.5q0 -20 -8.5 -29t-21.5 -9
q-12 0 -21.5 9.5t-9.5 28.5z" />
    <glyph glyph-name="acandranuktadeva" horiz-adv-x="670" 
d="M405 219q0 -45 -18.5 -72t-47.5 -39.5t-62 -12.5q-51 0 -93.5 26.5t-82 85t-78.5 154.5l26 9q49 -124 101 -186.5t123 -62.5q44 0 74.5 22.5t30.5 77.5q0 43 -25.5 80t-68.5 69q-28 -7 -61 -8l-2 26q80 4 117.5 32t37.5 81q0 51 -29.5 78t-83.5 27q-35 0 -66.5 -9.5
t-66.5 -28.5l-10 26q38 18 70.5 28t72.5 10q65 0 102.5 -35t37.5 -96q0 -42 -22.5 -73.5t-66.5 -48.5l16 -14t15 -15q26 -4 49.5 -5.5t43.5 -1.5q22 0 50 2.5t56 9.5v241h-82v26h223v-26h-115v-596h-26v329q-25 -7 -51 -9.5t-50 -2.5q-21 0 -41.5 1.5t-37.5 5.5
q19 -21 30 -47t11 -58zM694 870q-19 -80 -61 -122t-112 -42q-69 0 -112.5 43.5t-70.5 119.5l25 9q22 -69 60 -107.5t99 -38.5q59 0 93 35.5t54 110.5zM223 -30q0 18 8.5 28t22.5 10t22 -10.5t8 -27.5q0 -20 -8.5 -29t-21.5 -9q-12 0 -21.5 9.5t-9.5 28.5z" />
    <glyph glyph-name="ghanuktadeva" horiz-adv-x="529" 
d="M544 596h-115v-596h-26v226q-23 -23 -62 -45t-96 -22q-63 0 -106 33.5t-43 101.5q0 32 15 62t43 47q-45 13 -73.5 43.5t-28.5 77.5q0 21 6 38.5t17 33.5h-75v26h544v-26zM123 295q0 -61 35 -85.5t88 -24.5q48 0 88.5 21t68.5 56v334h-296q-13 -13 -21 -30.5t-8 -40.5
q0 -48 32.5 -72.5t81.5 -30.5q31 10 65 10q10 0 19.5 -0.5t17.5 -1.5l-4 -26q-8 1 -18 1.5t-17 0.5q-33 0 -63 -11.5t-49.5 -36t-19.5 -63.5zM132 28q0 18 8.5 28t22.5 10t22 -10.5t8 -27.5q0 -20 -8.5 -29t-21.5 -9q-12 0 -21.5 9.5t-9.5 28.5z" />
    <glyph glyph-name="nganuktadeva" horiz-adv-x="576" 
d="M348 251q-33 0 -63 -5.5t-59 -21.5q-33 22 -61.5 54t-28.5 81q0 36 18 60q16 21 43.5 33t85.5 12h129v132h-412v26h591v-26h-153v-158h-161q-75 0 -100 -32q-14 -17 -14 -50q0 -34 21.5 -61.5t44.5 -41.5q23 11 51 17.5t68 6.5q68 0 108.5 -37t40.5 -101
q0 -58 -43.5 -98.5t-133.5 -40.5q-98 0 -167 43t-123 109l22 16q57 -74 124.5 -108t142.5 -34q78 0 114.5 31.5t36.5 82.5q0 58 -36 84.5t-86 26.5zM474 360q0 18 9 28t22 10q14 0 22 -10.5t8 -27.5q0 -20 -8.5 -29t-21.5 -9q-12 0 -21.5 9.5t-9.5 28.5zM251 -134
q0 18 8.5 28t22.5 10t22 -10.5t8 -27.5q0 -20 -8.5 -29t-21.5 -9q-12 0 -21.5 9.5t-9.5 28.5z" />
    <glyph glyph-name="canuktadeva" horiz-adv-x="559" 
d="M574 596h-115v-596h-26v217q-22 -21 -59 -39.5t-89 -18.5q-68 0 -106 37.5t-38 99.5q0 43 19.5 72.5t64.5 49.5l-186 -2v28h222h60t46 -1l-2 -25h-38q-71 0 -115 -30.5t-44 -91.5q0 -42 17 -66.5t44.5 -34.5t57.5 -10q49 0 85.5 20.5t60.5 44.5v346h-433v26h574v-26z
M155 28q0 18 8.5 28t22.5 10t22 -10.5t8 -27.5q0 -20 -8.5 -29t-21.5 -9q-12 0 -21.5 9.5t-9.5 28.5z" />
    <glyph glyph-name="chanuktadeva" horiz-adv-x="665" 
d="M273 26q73 0 131 24.5t98 66t61 94.5t21 110q0 67 -30 106.5t-83 39.5q-49 0 -73.5 -26.5t-24.5 -66.5q0 -45 37.5 -82t113.5 -52l-9 -25q-89 22 -129 64.5t-40 95.5q0 48 29.5 80.5t80.5 36.5v104h-456v26h680v-26h-198v-103q53 -4 91 -47t38 -126q0 -61 -23 -118.5
t-66.5 -103t-105.5 -72t-141 -26.5q-77 0 -121.5 37t-44.5 98q0 68 53 105q-50 17 -80 51t-30 80q0 42 19.5 69t51 40t68.5 13q23 0 42.5 -3.5t34.5 -7.5l-3 -26q-31 11 -73 11q-55 0 -84 -24.5t-29 -73.5q0 -46 33.5 -72.5t79.5 -39.5q28 10 58 10q8 0 17.5 -0.5t16.5 -1.5
l-2 -26q-6 1 -14.5 1.5t-18.5 0.5q-47 0 -80 -26.5t-33 -79.5q0 -55 39 -82t98 -27zM290 -134q0 18 8.5 28t22.5 10t22 -10.5t8 -27.5q0 -20 -8.5 -29t-21.5 -9q-12 0 -21.5 9.5t-9.5 28.5z" />
    <glyph glyph-name="jhanuktadeva" horiz-adv-x="686" 
d="M270 251q-32 0 -61.5 -5.5t-58.5 -21.5q-33 22 -61.5 54t-28.5 81q0 20 4.5 34t13.5 26q16 21 44 33t88 12h130v132h-340v26h701v-26h-115v-596h-26v245q-24 -8 -49 -11.5t-56 -3.5q-17 0 -35 1t-36 4q37 -38 37 -94q0 -73 -52.5 -107t-132.5 -34h-23q36 -20 78.5 -41.5
t86.5 -41.5l-11 -24q-52 26 -102.5 54t-92.5 56q-29 2 -54.5 6.5t-41.5 14.5t-16 27q0 12 7.5 20t25.5 8q19 0 41 -14t43 -37q26 -4 53 -4q164 0 164 117q0 40 -17.5 64t-46 35t-60.5 11zM454 256q30 0 54.5 3.5t51.5 11.5v325h-194v-158h-162q-43 0 -66.5 -7.5t-36.5 -24.5
q-14 -17 -14 -50q0 -34 21.5 -61.5t44.5 -41.5q23 11 51 17.5t68 6.5q32 0 59 -10q26 -5 55.5 -8t67.5 -3zM159 -134q0 18 8.5 28t22.5 10t22 -10.5t8 -27.5q0 -20 -8.5 -29t-21.5 -9q-12 0 -21.5 9.5t-9.5 28.5z" />
    <glyph glyph-name="nyanuktadeva" horiz-adv-x="660" 
d="M172 425q26 13 54.5 21.5t60.5 8.5q59 0 100 -34.5t44 -102.5q8 -1 17 -1q23 0 44.5 5t41.5 16v258h-534v26h675v-26h-115v-596h-26v309q-17 -8 -38.5 -13t-48.5 -5q-3 0 -7 0.5t-10 1.5q-5 -69 -50.5 -101.5t-111.5 -32.5q-79 0 -138.5 47.5t-105.5 155.5l26 10
q42 -100 94.5 -143.5t121.5 -43.5q74 0 106.5 34.5t32.5 89.5q0 63 -33.5 91.5t-83.5 28.5q-32 0 -55.5 -8t-50.5 -22zM217 28q0 18 8.5 28t22.5 10t22 -10.5t8 -27.5q0 -20 -8.5 -29t-21.5 -9q-12 0 -21.5 9.5t-9.5 28.5z" />
    <glyph glyph-name="ttanuktadeva" horiz-adv-x="474" 
d="M489 596h-168v-200h-17q-58 0 -95.5 -11t-66.5 -34q-61 -47 -61 -132q0 -95 54 -144t138 -49q49 0 86 10t82 32l9 -25q-40 -20 -83.5 -31.5t-94.5 -11.5q-64 0 -113 26t-77 75t-28 118q0 65 31.5 110t86 69t123.5 24v174h-295v26h489v-26zM235 -134q0 18 8.5 28t22.5 10
t22 -10.5t8 -27.5q0 -20 -8.5 -29t-21.5 -9q-12 0 -21.5 9.5t-9.5 28.5z" />
    <glyph glyph-name="tthanuktadeva" horiz-adv-x="549" 
d="M564 596h-243v-176q90 -36 132 -93t42 -127q0 -69 -29.5 -113.5t-79.5 -65.5t-111 -21q-65 0 -115 26t-78 75t-28 118q0 65 31.5 110t86 69t123.5 24v174h-295v26h564v-26zM275 26q55 0 99 18.5t69.5 57t25.5 98.5t-39.5 114t-116.5 82h-9q-58 0 -95.5 -11t-66.5 -34
q-61 -47 -61 -137q0 -91 53.5 -139.5t140.5 -48.5zM243 -134q0 18 8.5 28t22.5 10t22 -10.5t8 -27.5q0 -20 -8.5 -29t-21.5 -9q-12 0 -21.5 9.5t-9.5 28.5z" />
    <glyph glyph-name="nnanuktadeva" horiz-adv-x="650" 
d="M550 596v-596h-26v596h-156v-253q0 -49 -12 -84t-42 -56q-32 -24 -86 -24q-46 0 -78 20q-60 38 -60 145v252h-90v26h665v-26h-115zM228 205q46 0 70 18q28 19 36 55.5t8 81.5v236h-226v-236q0 -50 8 -84.5t37 -52.5q11 -7 28 -12.5t39 -5.5zM208 28q0 18 8.5 28t22.5 10
t22 -10.5t8 -27.5q0 -20 -8.5 -29t-21.5 -9q-12 0 -21.5 9.5t-9.5 28.5z" />
    <glyph glyph-name="tanuktadeva" horiz-adv-x="509" 
d="M409 596v-596h-26v362h-126q-56 0 -91.5 -8t-57.5 -29q-10 -10 -19.5 -28t-9.5 -48q0 -43 20 -79t57 -73l88 -84l-17 -19q-47 42 -87 81.5t-64 82.5t-24 94q0 26 10 54t41 49q23 16 56.5 24.5t103.5 8.5h120v208h-383v26h524v-26h-115zM170 -134q0 18 8.5 28t22.5 10
t22 -10.5t8 -27.5q0 -20 -8.5 -29t-21.5 -9q-12 0 -21.5 9.5t-9.5 28.5z" />
    <glyph glyph-name="thanuktadeva" horiz-adv-x="571" 
d="M471 596v-596h-26v225q-26 -23 -65.5 -42.5t-96.5 -19.5q-70 0 -119 37.5t-76 126.5q84 13 127 49.5t43 104.5q0 57 -29.5 91t-83.5 34q-35 0 -54 -19t-19 -46q0 -25 11 -42.5t40 -28t82 -13.5l-2 -26q-76 5 -116.5 30.5t-40.5 79.5q0 44 30.5 67.5t73.5 23.5
q34 0 65 -17t50.5 -50t19.5 -82q0 -55 -22 -89.5t-59 -54.5t-81 -30q25 -65 63.5 -92.5t100.5 -27.5q47 0 86.5 18t71.5 52v337h-108v26h249v-26h-115zM188 28q0 18 8.5 28t22.5 10t22 -10.5t8 -27.5q0 -20 -8.5 -29t-21.5 -9q-12 0 -21.5 9.5t-9.5 28.5z" />
    <glyph glyph-name="danuktadeva" horiz-adv-x="469" 
d="M408 -44q-13 19 -28.5 45t-29 51t-22.5 44q-13 -2 -27.5 -3t-35.5 -1q-37 0 -74.5 10t-68.5 32.5t-49.5 58.5t-18.5 88q0 42 14.5 73t38.5 51q31 27 78.5 40t109.5 13h3v138h-298v26h484v-26h-160v-164h-26q-56 0 -97.5 -9.5t-67.5 -29.5q-24 -18 -38 -47.5t-14 -64.5
q0 -73 48 -118t137 -45q11 0 23.5 0.5t25.5 2.5q-5 9 -8 18.5t-3 20.5q0 17 12 29.5t33 12.5q23 0 38.5 -14.5t15.5 -36.5q0 -19 -13 -32t-36 -17q32 -66 76 -133zM157 -48q0 18 8.5 28t22.5 10t22 -10.5t8 -27.5q0 -20 -8.5 -29t-21.5 -9q-12 0 -21.5 9.5t-9.5 28.5z" />
    <glyph glyph-name="dhanuktadeva" horiz-adv-x="540" 
d="M555 596h-115v-596h-26v192q-24 -24 -63.5 -46t-98.5 -22q-64 0 -108.5 34t-44.5 101q0 30 13.5 59t41.5 48q-54 15 -86 50t-32 91t36.5 90.5t88.5 34.5q43 0 71.5 -24.5t28.5 -67.5q0 -46 -31 -81l-22 16q26 27 26 65q0 24 -17 45t-56 21q-45 0 -71.5 -29t-26.5 -75
q0 -51 34 -79.5t91 -37.5q34 12 72 12q10 0 19 -0.5t17 -1.5l-3 -26q-7 1 -17.5 1.5t-17.5 0.5q-33 0 -63.5 -11.5t-49.5 -36t-19 -63.5q0 -62 35.5 -86t90.5 -24q50 0 91.5 21t70.5 56v369h-80v26h221v-26zM182 -9q0 18 8.5 28t22.5 10t22 -10.5t8 -27.5q0 -20 -8.5 -29
t-21.5 -9q-12 0 -21.5 9.5t-9.5 28.5z" />
    <glyph glyph-name="panuktadeva" horiz-adv-x="527" 
d="M427 596v-596h-26v250q-26 -24 -64.5 -44t-89.5 -20q-37 0 -64 9t-48 31q-22 22 -32.5 59t-10.5 99v212h-92v26h542v-26h-115zM401 596h-283v-195q0 -71 9 -104t25 -51q17 -20 41 -27t51 -7q46 0 85.5 19t71.5 54v311zM133 28q0 18 8.5 28t22.5 10t22 -10.5t8 -27.5
q0 -20 -8.5 -29t-21.5 -9q-12 0 -21.5 9.5t-9.5 28.5z" />
    <glyph glyph-name="banuktadeva" horiz-adv-x="504" 
d="M519 596h-115v-596h-26v226q-25 -25 -65 -46t-99 -21q-70 0 -115 38.5t-45 115.5q0 78 49.5 120t135.5 42q35 0 59.5 -2.5t41.5 -7.5l-5 -26q-17 5 -39.5 7.5t-59.5 2.5q-51 0 -85 -16l180 -213q25 17 47 41v335h-378v26h519v-26zM81 313q0 -67 37.5 -97.5t97.5 -30.5
q49 0 94 23l-182 213q-47 -35 -47 -108zM121 28q0 18 8.5 28t22.5 10t22 -10.5t8 -27.5q0 -20 -8.5 -29t-21.5 -9q-12 0 -21.5 9.5t-9.5 28.5z" />
    <glyph glyph-name="bhanuktadeva" horiz-adv-x="625" 
d="M150 632q22 0 47 -10t42 -33q15 -20 25 -51t10 -97v-127h225v282h-163v26h304v-26h-115v-596h-26v288h-225v-32q0 -41 -32 -41q-16 0 -31 12t-25 28.5t-10 29.5q0 12 8.5 20.5t29.5 8.5h34v115q0 57 -6.5 87.5t-18.5 50.5q-15 22 -34.5 30.5t-43.5 8.5q-35 0 -54 -19
t-19 -46q0 -25 11 -42.5t40 -28t82 -13.5l-2 -26q-76 5 -116.5 30.5t-40.5 79.5q0 44 30.5 67.5t73.5 23.5zM238 28q0 18 8.5 28t22.5 10t22 -10.5t8 -27.5q0 -20 -8.5 -29t-21.5 -9q-12 0 -21.5 9.5t-9.5 28.5z" />
    <glyph glyph-name="manuktadeva" horiz-adv-x="530" 
d="M430 596v-596h-26v288h-250v-32q0 -41 -32 -41q-16 0 -31 12t-25 28.5t-10 29.5q0 12 8.5 20.5t29.5 8.5h34v282h-128v26h545v-26h-115zM404 596h-250v-282h250v282zM171 28q0 18 8.5 28t22.5 10t22 -10.5t8 -27.5q0 -20 -8.5 -29t-21.5 -9q-12 0 -21.5 9.5t-9.5 28.5z
" />
    <glyph glyph-name="lanuktadeva" horiz-adv-x="606" 
d="M0 596v26h621v-26h-115v-596h-26v401q-11 2 -27 2q-33 0 -63.5 -15t-56 -53t-46.5 -106l-26 8q22 72 54 116q-29 24 -55 36.5t-61 12.5q-56 0 -87.5 -33t-31.5 -85q0 -44 20 -83t65 -84t118 -108l-17 -19q-100 82 -156.5 150.5t-56.5 142.5q0 53 22 84.5t55.5 46
t65.5 14.5q41 0 73 -15t62 -40q26 29 57 42.5t66 13.5q14 0 26 -2v169h-480zM289 -119q0 18 8.5 28t22.5 10t22 -10.5t8 -27.5q0 -20 -8.5 -29t-21.5 -9q-12 0 -21.5 9.5t-9.5 28.5z" />
    <glyph glyph-name="vanuktadeva" horiz-adv-x="494" 
d="M509 596h-115v-596h-25v223q-25 -24 -64 -44t-96 -20q-65 0 -110 38.5t-45 115.5q0 78 48.5 120t131.5 42q33 0 56.5 -2.5t40.5 -7.5l-5 -26q-17 5 -39 7.5t-57 2.5q-70 0 -109.5 -34.5t-39.5 -101.5t37.5 -97.5t92.5 -30.5q46 0 86 19t71 53v339h-368v26h509v-26z
M121 28q0 18 8.5 28t22.5 10t22 -10.5t8 -27.5q0 -20 -8.5 -29t-21.5 -9q-12 0 -21.5 9.5t-9.5 28.5z" />
    <glyph glyph-name="shanuktadeva" horiz-adv-x="602" 
d="M111 206q-38 0 -53.5 13.5t-15.5 27.5q0 17 11 24.5t28 7.5q41 0 85 -37q56 20 93 73t37 129q0 79 -33 120.5t-89 41.5q-43 0 -61.5 -22.5t-18.5 -54.5q0 -14 5.5 -32t22 -34t48 -26.5t83.5 -10.5l-5 -26q-85 0 -133 35t-48 96q0 44 29 72.5t81 28.5q39 0 72.5 -21.5
t53.5 -64t20 -104.5q0 -49 -17.5 -93t-48.5 -77.5t-72 -50.5q26 -25 57 -59.5t62 -73.5t57 -75l-20 -15q-56 78 -98.5 127.5t-83.5 86.5q-23 -6 -48 -6zM502 596v-596h-26v596h-104v26h245v-26h-115zM158 -26q0 18 8.5 28t22.5 10t22 -10.5t8 -27.5q0 -20 -8.5 -29t-21.5 -9
q-12 0 -21.5 9.5t-9.5 28.5z" />
    <glyph glyph-name="ssanuktadeva" horiz-adv-x="531" 
d="M546 622v-26h-115v-596h-26v249q-29 -24 -67.5 -43.5t-86.5 -19.5q-39 0 -67 9t-49 31q-22 24 -32.5 60t-10.5 98v212h-92v26h546zM405 596h-266l266 -321v321zM152 246q16 -19 41 -26.5t53 -7.5q43 0 76.5 14.5t60.5 36.5l-265 321v-183q0 -71 9 -103.5t25 -51.5z
M133 28q0 18 8.5 28t22.5 10t22 -10.5t8 -27.5q0 -20 -8.5 -29t-21.5 -9q-12 0 -21.5 9.5t-9.5 28.5z" />
    <glyph glyph-name="sanuktadeva" horiz-adv-x="596" 
d="M496 596v-596h-26v301q-31 -9 -64.5 -14.5t-79.5 -5.5q-34 0 -76 5t-78 19q-28 -19 -67 -34q47 -66 107 -136t123 -129l-19 -18q-85 85 -147.5 161t-91.5 123q-13 22 -18.5 39t-5.5 30q0 18 11 27t25 9q21 0 36.5 -12.5t31.5 -40.5q35 22 51.5 58.5t16.5 85.5
q0 31 -8.5 66.5t-22.5 61.5h-194v26h611v-26h-115zM325 307q41 0 77 4.5t68 15.5v269h-248q12 -22 20.5 -57.5t8.5 -71.5q0 -48 -14 -83t-42 -61q26 -7 58.5 -11.5t71.5 -4.5zM79 28q0 38 31 38q14 0 22 -10.5t8 -27.5q0 -20 -8.5 -29t-21.5 -9t-22 9.5t-9 28.5z" />
    <glyph glyph-name="hanuktadeva" horiz-adv-x="490" 
d="M308 39q41 12 69 37.5t28 74.5q0 50 -32 83t-110 33q-82 0 -124.5 -38.5t-42.5 -99.5q0 -25 6.5 -49t25 -51t53.5 -61.5t91 -81.5l-17 -19q-97 79 -141.5 139t-44.5 121q0 43 17.5 75.5t47.5 54.5q-22 19 -38 43.5t-16 58.5q0 36 18 60q16 21 43.5 33t85.5 12h137v132
h-364v26h505v-26h-115v-158h-169q-75 0 -100 -32q-14 -17 -14 -50q0 -27 15.5 -48.5t34.5 -37.5q46 23 107 23q62 0 98.5 -20t53 -52.5t16.5 -67.5q0 -57 -30 -88t-85 -51zM82 -166q0 38 31 38q14 0 22 -10.5t8 -27.5q0 -20 -8.5 -29t-21.5 -9t-22 9.5t-9 28.5z" />
    <glyph glyph-name="kassadeva" horiz-adv-x="652" 
d="M552 596v-596h-26v360q-31 -17 -71.5 -29t-98.5 -12q-44 0 -81.5 8t-75.5 26q-37 -23 -63.5 -43.5t-40.5 -44.5t-14 -59q0 -50 35.5 -82.5t110.5 -32.5q10 0 22.5 0.5t24.5 1.5q-3 8 -6 17.5t-3 20.5q0 19 11.5 31.5t31.5 12.5q22 0 38 -14.5t16 -36.5q0 -13 -9 -27
t-39 -22q19 -27 40.5 -52t51.5 -56l-22 -17l-53.5 62t-42.5 57q-13 -2 -27.5 -3t-31.5 -1q-87 0 -132.5 41.5t-45.5 100.5q0 39 18 67.5t46 50.5t59 40q-41 26 -68 62t-27 87t35.5 84.5t96.5 33.5q53 0 88.5 -29t35.5 -85q0 -55 -32 -90t-76 -61q56 -22 124 -22
q61 0 102.5 13t72.5 33v205h-109v26h250v-26h-115zM106 513q0 -36 21.5 -72.5t73.5 -62.5q44 27 75.5 57.5t31.5 78.5q0 44 -24.5 68t-72.5 24q-47 0 -76 -24.5t-29 -68.5z" />
    <glyph glyph-name="janyadeva" horiz-adv-x="589" 
d="M289 230q0 38 -16 70t-57 60t-115 53l9 22h353v161h-463v26h604v-26h-115v-596h-26v409h-215q-26 0 -48 1t-40 2q80 -29 118 -75.5t38 -108.5q0 -56 -37 -93t-100 -44l78.5 -48t89.5 -48l-13 -24l-98.5 57t-91.5 61q-45 1 -78 12.5t-33 36.5q0 12 7.5 20t24.5 8
q18 0 39.5 -11.5t47.5 -40.5q65 0 101 31.5t36 84.5z" />
    <glyph glyph-name="rephdeva" 
d="M-136 615q-28 41 -46 78t-18 80q0 59 36.5 91t88.5 32q33 0 57 -7t45 -17l-10 -25q-23 13 -43 18t-45 5q-52 0 -77.5 -28t-25.5 -72q0 -36 17 -71t51 -84h-30z" />
    <glyph glyph-name="vattudeva" 
d="M-420 -173l240 161h12l124 -169l-22 -15l-112 156l-227 -156z" />
    <glyph glyph-name="kaprehalfdeva" horiz-adv-x="538" 
d="M553 596h-175v-290q30 33 65.5 47t85.5 14h53v-26h-47q-36 0 -62.5 -6t-48.5 -21t-46 -44v-270h-26v237q-27 -30 -62.5 -54t-91.5 -24q-60 0 -102 38.5t-42 118.5q0 76 47 117.5t123 41.5q53 0 91 -10l-5 -26q-31 10 -85 10q-66 0 -105 -34t-39 -99q0 -70 33 -100.5
t87 -30.5q39 0 76.5 20.5t74.5 71.5v319h-352v26h553v-26z" />
    <glyph glyph-name="khaprehalfdeva" horiz-adv-x="598" 
d="M670 97q-56 -43 -111 -61t-115 -18q-114 0 -201 62t-163 186q-16 25 -21.5 43.5t-5.5 31.5q0 18 11 27t25 9q21 0 36.5 -12.5t31.5 -39.5q35 21 51.5 57.5t16.5 85.5q0 31 -8.5 66.5t-22.5 61.5h-194v26h613v-26h-391q12 -22 20.5 -57.5t8.5 -71.5q0 -77 -37 -124
t-109 -72q72 -115 153 -171t182 -56q62 0 111 16t107 60zM635 255q-27 -32 -63 -51t-89 -19q-40 0 -73.5 17t-53.5 49.5t-20 80.5q0 51 22.5 84.5t59 50.5t78.5 17q21 0 40.5 -2.5t32.5 -5.5l-5 -26q-15 4 -31.5 6t-37.5 2q-58 0 -95 -32.5t-37 -93.5q0 -62 35 -91.5
t86 -29.5q47 0 80 18t57 47z" />
    <glyph glyph-name="gaprehalfdeva" horiz-adv-x="253" 
d="M156 596v-312q0 -21 -8.5 -30t-19.5 -9q-16 0 -32.5 12t-27 29.5t-10.5 34.5q0 14 10 22.5t36 8.5h26v244h-130v26h268v-26h-112z" />
    <glyph glyph-name="ghaprehalfdeva" horiz-adv-x="342" 
d="M123 295q0 -61 35 -85.5t88 -24.5q50 0 90.5 22t66.5 55l16 -22q-26 -29 -67.5 -55t-106.5 -26q-63 0 -106 33.5t-43 101.5q0 32 15 62t43 47q-45 13 -73.5 43.5t-28.5 77.5q0 21 6 38.5t17 33.5h-75v26h357v-26h-250q-13 -13 -21 -30.5t-8 -40.5q0 -48 32.5 -72.5
t81.5 -30.5q31 10 65 10q10 0 19.5 -0.5t17.5 -1.5l-4 -26q-8 1 -18 1.5t-17 0.5q-33 0 -63 -11.5t-49.5 -36t-19.5 -63.5z" />
    <glyph glyph-name="ngaprehalfdeva" horiz-adv-x="576" 
d="M348 251q-33 0 -63 -5.5t-59 -21.5q-33 22 -61.5 54t-28.5 81q0 36 18 60q16 21 43.5 33t85.5 12h129v132h-412v26h591v-26h-153v-158h-161q-75 0 -100 -32q-14 -17 -14 -50q0 -34 21.5 -61.5t44.5 -41.5q23 11 51 17.5t68 6.5q68 0 108.5 -37t40.5 -101
q0 -58 -43.5 -98.5t-133.5 -40.5q-98 0 -167 43t-123 109l22 16q57 -74 124.5 -108t142.5 -34q78 0 114.5 31.5t36.5 82.5q0 58 -36 84.5t-86 26.5zM474 360q0 18 9 28t22 10q14 0 22 -10.5t8 -27.5q0 -20 -8.5 -29t-21.5 -9q-12 0 -21.5 9.5t-9.5 28.5zM257 -54q7 2 15 2.5
t22 0.5q56 0 97 -23t75.5 -64.5t70.5 -97.5l-23 -13q-42 64 -75.5 101.5t-66.5 54t-75 16.5q-22 0 -37 -3z" />
    <glyph glyph-name="caprehalfdeva" horiz-adv-x="374" 
d="M0 622h389v-26h-389v26zM449 229q-26 -25 -63.5 -47.5t-100.5 -22.5q-68 0 -106 37.5t-38 99.5q0 43 19.5 72.5t64.5 49.5l-186 -2v28h222h60t46 -1l-2 -25h-38q-71 0 -115 -30.5t-44 -91.5q0 -42 17 -66.5t44.5 -34.5t57.5 -10q49 0 85.5 19.5t60.5 44.5z" />
    <glyph glyph-name="chaprehalfdeva" horiz-adv-x="665" 
d="M0 596v26h680v-26h-680zM273 26q73 0 131 24.5t98 66t61 94.5t21 110q0 67 -30 106.5t-83 39.5q-49 0 -73.5 -26.5t-24.5 -66.5q0 -45 37.5 -82t113.5 -52l-9 -25q-89 22 -129 64.5t-40 95.5q0 51 33.5 84.5t91.5 33.5q37 0 69 -19t51.5 -57.5t19.5 -96.5
q0 -61 -23 -118.5t-66.5 -103t-105.5 -72t-141 -26.5q-77 0 -121.5 37t-44.5 98q0 68 53 105q-50 17 -80 51t-30 80q0 42 19.5 69t51 40t68.5 13q23 0 42.5 -3.5t34.5 -7.5l-3 -26q-31 11 -73 11q-55 0 -84 -24.5t-29 -73.5q0 -46 33.5 -72.5t79.5 -39.5q28 10 58 10
q8 0 17 -0.5t16 -1.5l-1 -26q-6 1 -14.5 1.5t-18.5 0.5q-47 0 -80 -26.5t-33 -79.5q0 -55 39 -82t98 -27z" />
    <glyph glyph-name="japrehalfdeva" horiz-adv-x="534" 
d="M0 622h549v-26h-549v26zM534 415h-189q-36 0 -69 2q55 -41 87 -88t32 -109q0 -61 -35.5 -90t-81.5 -29q-48 0 -90.5 29t-83 96.5t-81.5 183.5l26 9q52 -151 106 -221.5t121 -70.5q45 0 68.5 24.5t23.5 70.5q0 62 -38 109.5t-96 87.5l11 22h289v-26z" />
    <glyph glyph-name="jhaprehalfdeva" horiz-adv-x="487" 
d="M270 251q-32 0 -61.5 -5.5t-58.5 -21.5q-33 22 -61.5 54t-28.5 81q0 20 4.5 34t13.5 26q16 21 44 33t88 12h130v132h-340v26h502v-26h-136v-158h-162q-43 0 -66.5 -7.5t-36.5 -24.5q-14 -17 -14 -50q0 -34 21.5 -61.5t44.5 -41.5q23 11 51 17.5t68 6.5q32 0 59 -10
q26 -5 55.5 -8t67.5 -3q33 0 55 3.5t52 11.5l3 -25q-28 -8 -51.5 -12t-57.5 -4q-17 0 -35 1t-36 4q37 -38 37 -94q0 -73 -52.5 -107t-132.5 -34h-23q36 -20 78.5 -41.5t86.5 -41.5l-11 -24q-52 26 -102.5 54t-92.5 56q-29 2 -54.5 6.5t-41.5 14.5t-16 27q0 12 7.5 20t25.5 8
q19 0 41 -14t43 -37q26 -4 53 -4q164 0 164 117q0 40 -17.5 64t-46 35t-60.5 11z" />
    <glyph glyph-name="nyaprehalfdeva" horiz-adv-x="489" 
d="M0 622h504v-26h-504v26zM172 425q26 13 54.5 21.5t60.5 8.5q59 0 100 -34.5t44 -102.5q8 -1 17 -1q50 0 87 22l3 -29q-21 -10 -42.5 -14.5t-48.5 -4.5q-3 0 -7 0.5t-10 1.5q-5 -69 -50.5 -101.5t-111.5 -32.5q-79 0 -138.5 47.5t-105.5 155.5l26 10q42 -100 94.5 -143.5
t121.5 -43.5q74 0 106.5 34.5t32.5 89.5q0 63 -33.5 91.5t-83.5 28.5q-32 0 -55.5 -8t-50.5 -22z" />
    <glyph glyph-name="ttaprehalfdeva" horiz-adv-x="474" 
d="M489 596h-168v-200h-17q-58 0 -95.5 -11t-66.5 -34q-61 -47 -61 -132q0 -95 54 -144t138 -49q49 0 86 10t82 32l9 -25q-40 -20 -83.5 -31.5t-94.5 -11.5q-64 0 -113 26t-77 75t-28 118q0 65 31.5 110t86 69t123.5 24v174h-295v26h489v-26zM227 -54q7 2 15 2.5t22 0.5
q56 0 97 -23t75.5 -64.5t70.5 -97.5l-23 -13q-42 64 -75.5 101.5t-66.5 54t-75 16.5q-22 0 -37 -3z" />
    <glyph glyph-name="tthaprehalfdeva" horiz-adv-x="549" 
d="M564 596h-243v-176q90 -36 132 -93t42 -127q0 -69 -29.5 -113.5t-79.5 -65.5t-111 -21q-65 0 -115 26t-78 75t-28 118q0 65 31.5 110t86 69t123.5 24v174h-295v26h564v-26zM275 26q55 0 99 18.5t69.5 57t25.5 98.5t-39.5 114t-116.5 82h-9q-58 0 -95.5 -11t-66.5 -34
q-61 -47 -61 -137q0 -91 53.5 -139.5t140.5 -48.5zM224 -54q7 2 15 2.5t22 0.5q56 0 97 -23t75.5 -64.5t70.5 -97.5l-23 -13q-42 64 -75.5 101.5t-66.5 54t-75 16.5q-22 0 -37 -3z" />
    <glyph glyph-name="ddaprehalfdeva" horiz-adv-x="548" 
d="M348 251q-33 0 -63 -5.5t-59 -21.5q-33 22 -61.5 54t-28.5 81q0 36 18 60q16 21 43.5 33t85.5 12h129v132h-412v26h563v-26h-125v-158h-161q-75 0 -100 -32q-14 -17 -14 -50q0 -34 21.5 -61.5t44.5 -41.5q23 11 51 17.5t68 6.5q68 0 108.5 -37t40.5 -101
q0 -58 -43.5 -98.5t-133.5 -40.5q-98 0 -167 43t-123 109l22 16q57 -74 124.5 -108t142.5 -34q78 0 114.5 31.5t36.5 82.5q0 58 -36 84.5t-86 26.5zM257 -54q7 2 15 2.5t22 0.5q56 0 97 -23t75.5 -64.5t70.5 -97.5l-23 -13q-42 64 -75.5 101.5t-66.5 54t-75 16.5
q-22 0 -37 -3z" />
    <glyph glyph-name="ddhaprehalfdeva" horiz-adv-x="519" 
d="M284 0q-66 0 -118 27t-81.5 78t-29.5 124q0 67 32.5 114t90 72.5t131.5 25.5h21v155h-330v26h534v-26h-178v-181h-39q-59 0 -99 -11t-69 -34q-67 -53 -67 -142q0 -94 51 -145t128 -57q-31 56 -31 114q0 52 32 87.5t91 35.5q55 0 85 -33t30 -85q0 -63 -50 -104t-134 -41z
M257 139q0 -35 9 -62.5t24 -51.5q72 2 111.5 35.5t39.5 84.5q0 44 -22.5 68t-66.5 24q-46 0 -70.5 -27t-24.5 -71zM217 -54q7 2 15 2.5t22 0.5q56 0 97 -23t75.5 -64.5t70.5 -97.5l-23 -13q-42 64 -75.5 101.5t-66.5 54t-75 16.5q-22 0 -37 -3z" />
    <glyph glyph-name="nnaprehalfdeva" horiz-adv-x="423" 
d="M228 179q-46 0 -78 20q-60 38 -60 145v252h-90v26h438v-26h-70v-253q0 -49 -12 -84t-42 -56q-32 -24 -86 -24zM228 205q46 0 70 18q28 19 36 55.5t8 81.5v236h-226v-236q0 -50 8 -84.5t37 -52.5q11 -7 28 -12.5t39 -5.5z" />
    <glyph glyph-name="taprehalfdeva" horiz-adv-x="321" 
d="M0 622h336v-26h-336v26zM52 252q0 26 10 54t41 49q23 16 56.5 24.5t103.5 8.5h100v-26h-106q-56 0 -91.5 -7.5t-57.5 -29.5q-10 -10 -19.5 -28t-9.5 -48q0 -43 20 -79t57 -73l88 -84l-17 -19q-47 42 -87 81.5t-64 82.5t-24 94z" />
    <glyph glyph-name="thaprehalfdeva" horiz-adv-x="376" 
d="M203 431q-76 5 -116.5 30.5t-40.5 79.5q0 44 30.5 67.5t73.5 23.5q34 0 65 -17t50.5 -50t19.5 -82q0 -55 -22 -90t-59 -55t-81 -29q25 -65 63 -92.5t101 -27.5q93 0 158 70l11 -25q-29 -28 -71 -49.5t-102 -21.5q-70 0 -119 37.5t-76 126.5q84 13 127 49.5t43 104.5
q0 57 -29.5 91t-83.5 34q-35 0 -54 -19t-19 -46q0 -25 11 -42.5t40 -28t82 -13.5z" />
    <glyph glyph-name="daprehalfdeva" horiz-adv-x="469" 
d="M408 -44q-13 19 -28.5 45t-29 51t-22.5 44q-13 -2 -27.5 -3t-35.5 -1q-37 0 -74.5 10t-68.5 32.5t-49.5 58.5t-18.5 88q0 42 14.5 73t38.5 51q31 27 78.5 40t109.5 13h3v138h-298v26h484v-26h-160v-164h-26q-56 0 -97.5 -9.5t-67.5 -29.5q-24 -18 -38 -47.5t-14 -64.5
q0 -73 48 -118t137 -45q11 0 23.5 0.5t25.5 2.5q-5 9 -8 18.5t-3 20.5q0 17 12 29.5t33 12.5q23 0 38.5 -14.5t15.5 -36.5q0 -19 -13 -32t-36 -17q32 -66 76 -133zM289 -54q7 2 15 2.5t22 0.5q56 0 97 -23t75.5 -64.5t70.5 -97.5l-23 -13q-42 64 -75.5 101.5t-66.5 54
t-75 16.5q-22 0 -37 -3z" />
    <glyph glyph-name="dhaprehalfdeva" horiz-adv-x="352" 
d="M426 202q-26 -26 -68 -52t-106 -26t-108.5 34t-44.5 101q0 30 13.5 59t41.5 48q-54 15 -86 50t-32 91t36.5 90.5t88.5 34.5q43 0 71.5 -24.5t28.5 -67.5q0 -46 -31 -81l-22 16q26 27 26 65q0 24 -17 45t-56 21q-45 0 -71.5 -29t-26.5 -75q0 -51 34 -79.5t91 -37.5
q34 12 72 12q10 0 19 -0.5t17 -1.5l-3 -26q-7 1 -17.5 1.5t-17.5 0.5q-33 0 -63.5 -11.5t-49.5 -36t-19 -63.5q0 -62 35.5 -86t90.5 -24q51 0 92.5 21.5t69.5 55.5z" />
    <glyph glyph-name="naprehalfdeva" horiz-adv-x="311" 
d="M0 622h326v-26h-326v26zM145 339v-42q0 -21 -8 -30t-21 -9q-16 0 -32 13t-26.5 30.5t-10.5 32.5q0 14 9.5 22.5t32.5 8.5h272v-26h-216z" />
    <glyph glyph-name="paprehalfdeva" horiz-adv-x="336" 
d="M118 596v-195q0 -71 9 -104t25 -51q17 -20 41 -27t51 -7q49 0 87.5 19.5t69.5 53.5l15 -21q-33 -34 -75.5 -56t-93.5 -22q-37 0 -64 9t-48 31q-22 22 -32.5 59t-10.5 99v212h-92v26h351v-26h-233z" />
    <glyph glyph-name="phaprehalfdeva" horiz-adv-x="564" 
d="M579 596h-175v-288q30 29 61.5 44t89.5 15h53v-26h-47q-38 0 -64 -5.5t-47 -20.5t-46 -42v-273h-26v247q-21 -23 -56.5 -42t-85.5 -19q-32 0 -58 9t-45 31q-20 23 -30.5 59.5t-10.5 99.5v211h-92v26h579v-26zM118 596v-201q0 -66 8.5 -98.5t23.5 -50.5q13 -15 33.5 -24.5
t51.5 -9.5q41 0 75.5 14.5t67.5 53.5v316h-260z" />
    <glyph glyph-name="baprehalfdeva" horiz-adv-x="329" 
d="M0 622h344v-26h-344v26zM394 240q-29 -29 -71 -55t-109 -26q-70 0 -115 38.5t-45 115.5q0 78 49.5 120t135.5 42q35 0 59.5 -2.5t41.5 -7.5l-5 -26q-17 5 -39.5 7.5t-59.5 2.5q-51 0 -85 -16l181 -213q25 17 46 41zM81 313q0 -67 37.5 -97.5t97.5 -30.5q26 0 49.5 6
t44.5 16l-182 214q-47 -35 -47 -108z" />
    <glyph glyph-name="bhaprehalfdeva" horiz-adv-x="420" 
d="M274 288v-32q0 -41 -32 -41q-16 0 -31 12t-25 28.5t-10 29.5q0 12 8.5 20.5t29.5 8.5h34v115q0 57 -6.5 87.5t-18.5 50.5q-15 22 -34.5 30.5t-43.5 8.5q-35 0 -54 -19t-19 -46q0 -25 11 -42.5t40 -28t82 -13.5l-2 -26q-76 5 -116.5 30.5t-40.5 79.5q0 44 30.5 67.5
t73.5 23.5q22 0 47 -10t42 -33q15 -20 25 -51t10 -97v-127h213v-26h-213zM336 622h99v-26h-99v26z" />
    <glyph glyph-name="maprehalfdeva" horiz-adv-x="319" 
d="M154 314h232v-26h-232v-32q0 -41 -32 -41q-16 0 -31 12t-25 28.5t-10 29.5q0 12 8.5 20.5t29.5 8.5h34v282h-128v26h334v-26h-180v-282z" />
    <glyph glyph-name="yaprehalfdeva" horiz-adv-x="334" 
d="M411 237q-23 -24 -64 -49t-99 -25q-81 0 -126 45t-76 141q64 15 91.5 45.5t27.5 82.5q0 36 -13.5 64.5t-37.5 54.5h-114v26h349v-26h-202q19 -24 32 -54t13 -66q0 -60 -30 -94t-81 -52q23 -66 60 -103.5t107 -37.5q48 0 86 20.5t66 51.5z" />
    <glyph glyph-name="raprehalfdeva" horiz-adv-x="379" 
d="M0 596v26h394v-26h-394zM429 325q-32 -17 -75.5 -26t-88.5 -9q-56 0 -113.5 18t-115.5 51l10 24q56 -31 108 -49t111 -18q51 0 86 8t74 28z" />
    <glyph glyph-name="laprehalfdeva" horiz-adv-x="451" 
d="M0 622h465v-26h-465v26zM496 397q-10 3 -19 4.5t-22 1.5q-35 0 -65.5 -15t-56 -53t-46.5 -106l-26 8q22 72 54 116q-29 24 -55 36.5t-61 12.5q-56 0 -87.5 -33t-31.5 -85q0 -44 20 -83t65 -84t118 -108l-17 -19q-100 82 -156.5 150.5t-56.5 142.5q0 53 22 84.5t55.5 46
t65.5 14.5q41 0 73 -15t62 -40q26 29 57 42.5t67 13.5q15 0 26.5 -2t21.5 -5z" />
    <glyph glyph-name="llaprehalfdeva" horiz-adv-x="663" 
d="M0 622h678v-26h-678v26zM661 271q0 -51 -19.5 -91.5t-55.5 -64t-85 -23.5q-44 0 -86 20t-84 68q-29 -52 -62.5 -70t-73.5 -18q-37 0 -69.5 20t-52 59.5t-19.5 99.5q0 51 19.5 91.5t55 64t85.5 23.5q44 0 85.5 -20t83.5 -67q30 51 63 69t74 18q38 0 70 -19.5t51.5 -59
t19.5 -100.5zM358 237q-7 -18 -14 -33q38 -44 74.5 -65t82.5 -21q57 0 95 39t38 115q0 78 -33.5 115t-82.5 37q-42 0 -74 -24.5t-59 -93.5zM81 270q0 -78 33.5 -115t83.5 -37q41 0 72.5 25t59.5 97l26 65q7 18 15 34q-38 43 -74.5 64t-82.5 21q-57 0 -95 -39t-38 -115z" />
    <glyph glyph-name="vaprehalfdeva" horiz-adv-x="319" 
d="M0 622h334v-26h-334v26zM384 237q-27 -29 -70 -53.5t-105 -24.5q-65 0 -110 38.5t-45 115.5q0 78 48.5 120t131.5 42q33 0 56.5 -2.5t40.5 -7.5l-5 -26q-17 5 -39 7.5t-57 2.5q-70 0 -109.5 -34.5t-39.5 -101.5t37.5 -97.5t92.5 -30.5q49 0 89.5 20.5t67.5 52.5z" />
    <glyph glyph-name="shaprehalfdeva" horiz-adv-x="366" 
d="M111 206q-38 0 -53.5 13.5t-15.5 27.5q0 17 11 24.5t28 7.5q41 0 85 -37q56 20 93 73t37 129q0 79 -33 120.5t-89 41.5q-43 0 -61.5 -22.5t-18.5 -54.5q0 -14 5.5 -32t22 -34t48 -26.5t83.5 -10.5l-5 -26q-85 0 -133 35t-48 96q0 44 29 72.5t81 28.5q39 0 72.5 -21.5
t53.5 -64t20 -104.5q0 -49 -17.5 -93t-48.5 -77.5t-72 -50.5q26 -25 57 -59.5t62 -73.5t57 -75l-20 -15q-56 78 -98.5 127.5t-83.5 86.5q-23 -6 -48 -6z" />
    <glyph glyph-name="ssaprehalfdeva" horiz-adv-x="346" 
d="M405 276l10 -21q-31 -25 -71 -47t-93 -22q-39 0 -67 9t-49 31q-22 24 -32.5 60t-10.5 98v212h-92v26h361v-26h-222zM246 212q43 0 78.5 16t58.5 35l-265 321v-183q0 -71 9 -103.5t25 -51.5t41 -26.5t53 -7.5z" />
    <glyph glyph-name="saprehalfdeva" horiz-adv-x="360" 
d="M325 307q33 0 56 2.5t48 6.5l5 -24q-23 -6 -48 -8.5t-60 -2.5q-34 0 -76 5t-78 19q-28 -19 -67 -34q47 -66 107 -136t123 -129l-19 -18q-85 85 -147.5 161t-91.5 123q-13 22 -18.5 39t-5.5 30q0 18 11 27t25 9q21 0 36.5 -12.5t31.5 -40.5q35 22 51.5 58.5t16.5 85.5
q0 31 -8.5 66.5t-22.5 61.5h-194v26h375v-26h-153q12 -22 20.5 -57.5t8.5 -71.5q0 -48 -14 -83t-42 -61q26 -7 58.5 -11.5t71.5 -4.5z" />
    <glyph glyph-name="haprehalfdeva" horiz-adv-x="371" 
d="M441 259h-152q-63 0 -96.5 -9.5t-60.5 -32.5q-36 -31 -36 -88q0 -25 6.5 -49t25 -51t53.5 -61.5t91 -81.5l-17 -19q-97 79 -141.5 139t-44.5 121q0 35 11.5 60.5t28.5 42.5q14 14 29 23q-24 20 -41 45.5t-17 60.5q0 36 18 60q16 21 43.5 33t85.5 12h76v132h-303v26h386
v-26h-57v-158h-108q-75 0 -100 -32q-14 -17 -14 -50q0 -29 17 -51.5t38 -38.5q25 11 57.5 15t76.5 4h145v-26z" />
    <glyph glyph-name="zhaprehalfdeva" horiz-adv-x="539" 
d="M0 622h554v-26h-554v26zM278 132q-48 0 -90.5 27.5t-83 92t-81.5 174.5l26 9q51 -144 105.5 -210.5t121.5 -66.5q92 0 92 90q0 59 -38 104.5t-96 82.5l12 22h293v-26h-194q-36 0 -68 2q54 -39 86 -84t32 -104q0 -58 -35.5 -85.5t-81.5 -27.5zM178 22q-10 0 -18.5 9
t-8.5 26t8 26t19 9q12 0 19.5 -9.5t7.5 -25.5q0 -17 -8.5 -26t-18.5 -9zM340 22q-10 0 -18.5 9t-8.5 26t8 26t19 9q12 0 19.5 -9.5t7.5 -25.5q0 -17 -8.5 -26t-18.5 -9zM259 -68q-11 0 -19 9t-8 26t8 26t19 9q12 0 19.5 -9.5t7.5 -25.5q0 -17 -8 -26t-19 -9z" />
    <glyph glyph-name="heavyyaprehalfdeva" horiz-adv-x="338" 
d="M248 163q-81 0 -126 45t-76 141q64 15 91.5 45.5t27.5 82.5q0 36 -13.5 64.5t-37.5 54.5h-114v26h353v-26h-206q13 -16 23 -34.5t15 -40.5l219 -267l10 -19q-26 -23 -67 -47.5t-99 -24.5zM243 412l-31 37.5t-21 27.5q-1 -62 -31 -96t-79 -51q23 -68 60.5 -104.5
t107.5 -36.5q75 0 133 54z" />
    <glyph glyph-name="kassaprehalfdeva" horiz-adv-x="408" 
d="M467 335q-23 -7 -50 -11.5t-61 -4.5q-44 0 -81.5 8t-75.5 26q-37 -23 -63.5 -43.5t-40.5 -44.5t-14 -59q0 -50 35.5 -82.5t110.5 -32.5q10 0 22.5 0.5t24.5 1.5q-3 8 -6 17.5t-3 20.5q0 19 11.5 31.5t31.5 12.5q22 0 38 -14.5t16 -36.5q0 -13 -9 -27t-39 -22
q19 -27 40.5 -52t51.5 -56l-22 -17l-53.5 62t-42.5 57q-13 -2 -27.5 -3t-31.5 -1q-87 0 -132.5 41.5t-45.5 100.5q0 39 18 67.5t46 50.5t59 40q-41 26 -68 62t-27 87t35.5 84.5t96.5 33.5q53 0 88.5 -29t35.5 -85q0 -55 -32 -90t-76 -61q56 -22 124 -22q34 0 61.5 4.5
t49.5 11.5zM106 513q0 -36 21.5 -72.5t73.5 -62.5q44 27 75.5 57.5t31.5 78.5q0 44 -24.5 68t-72.5 24q-47 0 -76 -24.5t-29 -68.5z" />
    <glyph glyph-name="janyaprehalfdeva" horiz-adv-x="383" 
d="M0 622h398v-26h-398v26zM289 230q0 38 -16 70t-57 60t-115 53l9 22h330v-26h-192q-26 0 -48 1t-40 2q80 -29 118 -75.5t38 -108.5q0 -56 -37 -93t-100 -44l78.5 -48t89.5 -48l-13 -24l-98.5 57t-91.5 61q-45 1 -78 12.5t-33 36.5q0 12 7.5 20t24.5 8q18 0 39.5 -11.5
t47.5 -40.5q65 0 101 31.5t36 84.5z" />
    <glyph glyph-name="kanuktaprehalfdeva" horiz-adv-x="538" 
d="M553 596h-175v-290q30 33 65.5 47t85.5 14h53v-26h-47q-36 0 -62.5 -6t-48.5 -21t-46 -44v-270h-26v237q-27 -30 -62.5 -54t-91.5 -24q-60 0 -102 38.5t-42 118.5q0 76 47 117.5t123 41.5q53 0 91 -10l-5 -26q-31 10 -85 10q-66 0 -105 -34t-39 -99q0 -70 33 -100.5
t87 -30.5q39 0 76.5 20.5t74.5 71.5v319h-352v26h553v-26zM121 28q0 18 8.5 28t22.5 10t22 -10.5t8 -27.5q0 -20 -8.5 -29t-21.5 -9q-12 0 -21.5 9.5t-9.5 28.5z" />
    <glyph glyph-name="khanuktaprehalfdeva" horiz-adv-x="598" 
d="M670 97q-56 -43 -111 -61t-115 -18q-114 0 -201 62t-163 186q-16 25 -21.5 43.5t-5.5 31.5q0 18 11 27t25 9q21 0 36.5 -12.5t31.5 -39.5q35 21 51.5 57.5t16.5 85.5q0 31 -8.5 66.5t-22.5 61.5h-194v26h613v-26h-391q12 -22 20.5 -57.5t8.5 -71.5q0 -77 -37 -124
t-109 -72q72 -115 153 -171t182 -56q62 0 111 16t107 60zM635 255q-27 -32 -63 -51t-89 -19q-40 0 -73.5 17t-53.5 49.5t-20 80.5q0 51 22.5 84.5t59 50.5t78.5 17q21 0 40.5 -2.5t32.5 -5.5l-5 -26q-15 4 -31.5 6t-37.5 2q-58 0 -95 -32.5t-37 -93.5q0 -62 35 -91.5
t86 -29.5q47 0 80 18t57 47zM113 28q0 18 8.5 28t22.5 10t22 -10.5t8 -27.5q0 -20 -8.5 -29t-21.5 -9q-12 0 -21.5 9.5t-9.5 28.5z" />
    <glyph glyph-name="ganuktaprehalfdeva" horiz-adv-x="253" 
d="M156 596v-312q0 -21 -8.5 -30t-19.5 -9q-16 0 -32.5 12t-27 29.5t-10.5 34.5q0 14 10 22.5t36 8.5h26v244h-130v26h268v-26h-112zM113 28q0 18 8.5 28t22.5 10t22 -10.5t8 -27.5q0 -20 -8.5 -29t-21.5 -9q-12 0 -21.5 9.5t-9.5 28.5z" />
    <glyph glyph-name="ghanuktaprehalfdeva" horiz-adv-x="342" 
d="M123 295q0 -61 35 -85.5t88 -24.5q50 0 90.5 22t66.5 55l16 -22q-26 -29 -67.5 -55t-106.5 -26q-63 0 -106 33.5t-43 101.5q0 32 15 62t43 47q-45 13 -73.5 43.5t-28.5 77.5q0 21 6 38.5t17 33.5h-75v26h357v-26h-250q-13 -13 -21 -30.5t-8 -40.5q0 -48 32.5 -72.5
t81.5 -30.5q31 10 65 10q10 0 19.5 -0.5t17.5 -1.5l-4 -26q-8 1 -18 1.5t-17 0.5q-33 0 -63 -11.5t-49.5 -36t-19.5 -63.5zM132 28q0 18 8.5 28t22.5 10t22 -10.5t8 -27.5q0 -20 -8.5 -29t-21.5 -9q-12 0 -21.5 9.5t-9.5 28.5z" />
    </font>
</defs>
</svg>
